Calling
紗羅マリー

EXTREME

Level: 8
BPM: 155
Notes: 709

1
口口口口 |----|
口口口口 |----|
口口口口 |----|
口口口口 |----|
2
④口口④ |①---|
③口口③ |②---|
②口口② |③---|
①口口① |④---|
3
口口口口 |①---|
口口口口 |----|
口①①口 |----|
口口口口 |----|
4
口口口口 |①---|
口口③口 |----|
口口口口 |②---|
①②口① |③---|
5
口口口口 |①---|
①口口① |--②-|
口②③口 |③---|
口口口口 |----|
6
口口口口 |①---|
①口口① |--②-|
口②③口 |③---|
口口口口 |----|
7
口口口口 |①---|
①口口① |--②-|
口②③口 |③---|
口口口口 |----|
8
口①①口 |①---|
①口口① |----|
口口③口 |②---|
口②口口 |③---|
9
①口口① |①---|
口口②口 |②---|
口③③口 |③---|
口口口口 |----|
10
①口口① |①---|
口②口口 |②---|
口③③口 |③---|
口口口口 |----|
11
①口口① |①---|
口口②口 |②---|
口③③口 |③---|
口口口口 |----|
12
口①①口 |①---|
口口口口 |----|
①口口①
口口口口

口口口口
②口口③
④口口⑤ |②-③-|
口口口口 |④-⑤-|
13
口口口口 |①-②-|
④②②④ |③-④-|
口③③口
口①①口

⑤口口⑤
口⑦口口
口口口⑥ |⑤---|
口口口口 |⑥-⑦-|
14
④④②② |①---|
④④②② |②---|
①①③③ |③---|
①①③③ |④---|
15
口口口口 |①-②-|
口口口② |③-④-|
口③③口
①口口④

口口口口
口口口口
⑦口口⑤ |⑤---|
⑥⑤口口 |⑥-⑦-|
16
①①③③ |①---|
①①③③ |②---|
④④②② |③---|
④④②② |④---|
17
口口③③ |①-②-|
①②④口 |③-④-|
口口①口
口口口口

⑤⑥口口
口⑦口口
口口口口 |⑤---|
口口⑤口 |⑥-⑦-|
18
④④②② |①---|
④④②② |②---|
①①③③ |③---|
①①③③ |④---|
19
③③①① |①---|
口口口口 |②---|
④②②④ |③---|
①①③③ |④---|
20
口口口口 |①---|
①①②② |②---|
④④③③ |③---|
口口口口 |④---|
21
口⑤⑤口 |①-②-|
①⑦口② |③-④-|
口口口⑥ |⑤---|
③口口④ |⑥-⑦-|
22
④④②② |①---|
④④②② |②---|
①①③③ |③---|
①①③③ |④---|
23
口口口口 |①-②-|
口口口② |③-④-|
口③③口
①口口④

口口口口
口口口口
⑦口口⑤ |⑤---|
⑥⑤口口 |⑥-⑦-|
24
①①③③ |①---|
①①③③ |②---|
④④②② |③---|
④④②② |④---|
25
口口③③ |①-②-|
①②④口 |③-④-|
口口①口
口口口口

⑤⑥口口
口⑦口口
口口口口 |⑤---|
口口⑤口 |⑥-⑦-|
26
④④②② |①---|
④④②② |②---|
①①③③ |③---|
①①③③ |④---|
27
③③①① |①---|
口口口口 |②---|
④②②④ |③---|
①①③③ |④---|
28
口口口口 |①---|
①①②② |②---|
④④③③ |③---|
口口口口 |④---|
29
①口口① |①---|
口口口② |②---|
口口口③ |③---|
口口口④ |④---|
30
④口口口 |①---|
③口口口 |②---|
②口口口 |③---|
①①口口 |④---|
31
口口口① |①---|
④③②① |②---|
口口口口 |③---|
口口口口 |④---|
32
口口口口 |①---|
口口口④ |②---|
①②③④ |③---|
①口③口 |④---|
33
①①口口 |①---|
②口口口 |②---|
③口口口 |③---|
④口口口 |④---|
34
口口口④ |①---|
口口口③ |②---|
口口口② |③---|
口①①① |④---|
35
①口口口 |①---|
①②③④ |②---|
口口口口 |③---|
口口口口 |④---|
36
口口口口 |①---|
口口口口 |②---|
④③②① |③---|
口口口① |④---|
37
口④口口 |①---|
⑤口③⑤ |--②-|
口②口口 |③-④-|
①口口① |--⑤-|
38
口口口口 |----|
口①口口 |①-②-|
④口②④ |--③-|
③口口③ |--④-|
39
①口口① |①---|
②②口口 |②---|
口③③口 |③---|
口口④④ |④---|
40
①口口① |①-②-|
口③③口 |--③-|
②口口② |④---|
口④④口 |----|
41
口口口口 |①---|
口口口口 |--②-|
口②口口
①口口①

口④口口
⑤口③⑤
口口口口 |③-④-|
⑤口口⑤ |--⑤-|
42
口④④口 |----|
口①口口 |①-②-|
③口②③ |--③-|
③口口③ |--④-|
43
①口口② |----|
③口口④ |----|
①口口② |①-②-|
口口口口 |③-④-|
44
⑮⑦⑧⑯ |①②③④|
⑬⑤⑥⑭ |⑤⑥⑦⑧|
⑪③④⑫ |⑨⑩⑪⑫|
⑨①②⑩ |⑬⑭⑮⑯|
45
口④⑥⑤ |①---|
口口⑥④ |②-③-|
口②口③ |④-⑤-|
口①①口 |--⑥-|
46
④口口口 |①---|
口口口② |②-③-|
②口③⑥ |④-⑤-|
①①口⑤ |--⑥-|
47
③③①① |①---|
④口②④ |②---|
口②口口 |③---|
①①③③ |④---|
48
④口口④ |①-②-|
⑥②②口 |③-④-|
①⑤⑤① |⑤---|
口③口⑥ |⑥---|
49
④口口⑤ |①---|
口口④⑥ |②-③-|
②口③口 |④-⑤-|
①①口⑥ |--⑥-|
50
口④口口 |①---|
口口口⑤ |②-③-|
口②②口 |④-⑤-|
①①③⑥ |--⑥-|
51
③③①① |①---|
⑤④④⑤ |②---|
②口③③ |③---|
①①口口 |④-⑤-|
52
口口口口 |①---|
口口口口 |②---|
口②口口
①①口口

口口口口
口③④口
口口口口 |③---|
④口口③ |④---|
53
②口①① |①-②-|
③口④④ |--③-|
⑤口口口 |④-⑤-|
⑥口③③ |--⑥-|
54
②口①① |①-②-|
③口④④ |--③-|
⑤口口口 |④-⑤-|
⑥口③③ |--⑥-|
55
②口口① |①-②-|
③口口④ |--③-|
⑤口口口 |④-⑤-|
⑥口口③ |--⑥-|
56
②口口① |①-②-|
③口⑥⑥ |--③-|
⑤口口③ |④-⑤-|
⑦口④④ |⑥-⑦-|
57
②口①① |①-②-|
④口⑤口 |③-④-|
⑥口口⑤ |⑤-⑥-|
⑦口③口 |--⑦-|
58
②口①口 |①-②-|
④口⑤① |③-④-|
⑥口口口 |⑤-⑥-|
⑦口③口 |--⑦-|
59
②口①口 |①-②-|
③口④① |--③-|
⑤口口口 |④-⑤-|
⑥口③口 |--⑥-|
60
⑦口口⑧ |①-②-③-|
⑦①⑥⑧ |④-⑤-⑥-|
⑨⑤②⑩ |⑦-⑧-|
口③④口 |⑨-⑩-|
61
口口口口 |①-②-|
④②②④ |③-④-|
口③③口
口①①口

⑤口口⑤
口⑦口口
口口口⑥ |⑤---|
口口口口 |⑥-⑦-|
62
④④②② |①---|
④④②② |②---|
①①③③ |③---|
①①③③ |④---|
63
口口口口 |①-②-|
口口口② |③-④-|
口③③口
①口口④

口口口口
口口口口
⑦口口⑤ |⑤---|
⑥⑤口口 |⑥-⑦-|
64
①①③③ |①---|
①①③③ |②---|
④④②② |③---|
④④②② |④---|
65
口口③③ |①-②-|
①②④口 |③-④-|
口口①口
口口口口

⑤⑥口口
口⑦口口
口口口口 |⑤---|
口口⑤口 |⑥-⑦-|
66
④④②② |①---|
④④②② |②---|
①①③③ |③---|
①①③③ |④---|
67
③③①① |①---|
口口口口 |②---|
④②②④ |③---|
①①③③ |④---|
68
口口口口 |①---|
①①②② |②---|
④④③③ |③---|
口口口口 |④---|
69
口⑤⑤口 |①-②-|
①⑦口② |③-④-|
口口口⑥ |⑤---|
③口口④ |⑥-⑦-|
70
④④②② |①---|
④④②② |②---|
①①③③ |③---|
①①③③ |④---|
71
口口口口 |①-②-|
口口口② |③-④-|
口③③口
①口口④

口口口口
口口口口
⑦口口⑤ |⑤---|
⑥⑤口口 |⑥-⑦-|
72
①①③③ |①---|
①①③③ |②---|
④④②② |③---|
④④②② |④---|
73
口口③③ |①-②-|
①②④口 |③-④-|
口口①口
口口口口

⑤⑥口口
口⑦口口
口口口口 |⑤---|
口口⑤口 |⑥-⑦-|
74
④④②② |①---|
④④②② |②---|
①①③③ |③---|
①①③③ |④---|
75
③③①① |①---|
口口口口 |②---|
④②②④ |③---|
①①③③ |④---|
76
口口口口 |①---|
①①②② |②---|
④④③③ |③---|
口口口口 |④---|
77
①①①① |①---|
口口口口 |----|
口口口口 |----|
口口口口 |----|


不確定度: 0

最終更新:2013年05月27日 20:05