squall
猫叉Master+

EXTREME

Level: 9
BPM: 190
Notes: 657

1
口口口口 |----|
口口口口 |----|
口口口口 |----|
口口口口 |----|
2
口③口口 |①---②-|
⑥口口④ |--③---|
②口口口 |④---⑤-|
口⑤①① |--⑥---|
3
口⑤①口 |①---②-|
口口口⑥ |--③---|
④口口② |④---⑤-|
口口③口 |--⑥---|
4
①口④口 |①---②-|
⑤①口口 |--③---|
口口口③ |④---⑤-|
口②⑥口 |--⑥---|
5
口②⑥口 |①---②-|
口口口① |--③---|
③口口⑤ |④---⑤-|
口④口口 |--⑥---|
6
③③口④ |①---②-|
⑥⑥口④ |--③---|
②⑤口口 |④---⑤-|
②⑤①① |--⑥---|
7
⑤⑤①⑥ |①---②-|
口口①⑥ |--③---|
④口②② |④---⑤-|
④口③③ |--⑥---|
8
口口③口 |----①-|
④④③口 |--②---|
口①②② |③---④-|
口①⑤⑤ |--⑤---|
9
②②⑥① |①---②-|
口口⑥① |--③---|
③④⑤⑤ |④---⑤-|
③④口口 |--⑥---|
10
②①口② |①---②-|
口③口③ |--③---|
④⑤④⑤ |④---⑤-|
⑥口①⑥ |--⑥---|
11
口口③③ |①---|
①口口口 |--②-|
口口②口 |----|
口①①口 |③---|
12
口①口口 |----|
口口②口 |----|
口口口④ |①-②-|
③口口口 |③-④-|
13
③③口口 |①---|
口口口① |--②-|
口②口口 |----|
口①①口 |③---|
14
口⑥⑥口 |----|
②③④⑤ |----|
①口口① |①--②③④|
口口口口 |⑤-⑥-|
15
口口③③ |①---|
口口口口 |--②-|
口口②口 |----|
口①①口 |③---|
16
口口口口 |----|
②口口① |----|
口口口③ |①-②-|
口④口口 |③-④-|
17
口口口① |①---|
口①①口 |--②-|
②②②口 |----|
口③③口 |③---|
18
口口口口 |----①-|
①④④① |--②---|
②口口② |③---|
③④④③ |④---|
19
①口口② |----|
①③口② |①---|
口③口口 |②---|
口口口口 |③---|
20
口③④口 |①---|
口口①口 |②---|
⑤口①⑥ |③-④-|
②口口② |⑤-⑥-|
21
口口③① |----|
口②③① |①---|
口②口口 |②---|
口口口口 |③---|
22
口口口④ |①---|
⑧⑦⑥⑤ |②-③-|
①③口口 |④--⑤⑥⑦|
①口口② |⑧---|
23
②②①口 |①---|
口口③③ |②---|
④④口口 |③---|
①①口口 |④---|
24
②③口口 |①---|
②口口口 |②---|
⑥口⑤口 |③-④-|
④口①① |⑤-⑥-|
25
⑥⑤④③ |①-②-|
⑨①⑦② |③④⑤⑥--|
口口口口 |⑦-⑧-|
口口口⑧ |⑨---|
26
⑫⑧⑨⑬ |--①-|
⑩⑥⑦⑪ |②③④⑤--|
②③④⑤ |⑥⑦⑧⑨|
口口①口 |⑩⑪⑫⑬|
27
口口口口 |①---|
口②④口 |--②---|
口口口口 |③---|
①①③③ |--④---|
28
②④口口 |①---|
口口口⑤ |--②---|
口口口口 |③---|
①①③③ |--④⑤|
29
口口口口 |①---|
②口口口 |--②-|
口口口口 |③---|
①①③③ |----|
30
口口口② |----|
③口口口 |----|
口①①口 |①---|
口口口口 |--②③|
31
口口②口 |①---|
口口口口 |--②-|
口口口口 |③---|
③③①① |----|
32
④口口③ |----|
②口口⑤ |①-②-|
口口①口 |③---|
口口口口 |--④-⑤-|
33
口③口口 |①---|
口口②口 |--②-③-|
口口口口 |④---|
①①④④ |----|
34
口口口口 |--①②|
④⑤⑥⑦ |③---|
口①②③ |④⑤⑥⑦|
⑧⑧口口 |⑧---|
35
②口①① |①---|
口口口口 |--②---|
口口口口
口口口口

口口④口
口口口口
口口口口 |③---|
口口③③ |--④---|
36
口④口口 |①---|
②口口⑤ |--②---|
口口口口 |③---|
①①③③ |--④-⑤-|
37
③口口口 |①---|
口口②口 |--②-③-|
口口口口 |④---|
①①④④ |----|
38
③①②④ |----|
口口口口 |----|
⑤口口口 |--①-②-|
口口口口 |③-④-⑤-|
39
⑫口⑬⑬ |①--②③④|
⑧②③⑨ |⑤⑥⑦⑧⑨-|
口④⑤① |⑩-⑪-⑫-|
⑩⑥⑦⑪ |⑬---|
40
口③③口 |----|
口口②② |--①---|
口口口口 |②---|
口①口口 |③---|
41
口口口① |①-②-|
口口口口 |③---|
②口口口 |----|
口口③③ |----|
42
④③②① |①②③④|
⑧⑦⑥⑤ |⑤⑥⑦⑧|
⑨⑩⑪⑫ |⑨⑩⑪⑫|
⑬⑭⑮⑯ |⑬⑭⑮⑯|
43
②①①口 |①---|
⑤③③口 |②-③-|
口④④口 |----|
口口口口 |④-⑤-|
44
口口口口 |①-②-|
口③口② |③-④-|
口口口⑤ |⑤---|
④①①④ |----|
45
口①①口 |①---|
口③③② |②-③-|
口④④口 |----|
口口口口 |④---|
46
口口口⑧ |①-②-|
⑤口口③ |③-④-|
②⑦口⑥ |⑤-⑥-|
④①①④ |⑦-⑧-|
47
②①①口 |①---|
⑤③③口 |②-③-|
口④④口 |----|
口口口口 |④-⑤-|
48
口口口口 |①-②-|
口③口② |③-④-|
口口口⑤ |⑤---|
④①①④ |----|
49
口①①口 |①---|
口③③② |②-③-|
口④④口 |----|
口口口口 |④---|
50
⑤口口⑧ |①-②-|
口口口③ |③-④-|
②⑦口⑥ |⑤-⑥-|
④①①④ |⑦-⑧-|
51
口①①口 |①---|
口②②口 |--②-|
口口口口 |----|
口口口口 |----|
52
口口口① |----|
口口口口 |----|
③口口④ |①-②-|
③②口④ |③-④-|
53
口①①口 |①---|
口②②口 |--②-|
口口口口 |----|
口口口口 |----|
54
⑦口口⑧ |----|
⑨①②⑩ |①②③④⑤⑥|
⑪③④⑫ |⑦⑧⑨⑩|
⑬⑤⑥口 |⑪-⑫-⑬-|
55
口①①口 |①---|
口③③口 |②-③-|
口口口口 |----|
口口口② |----|
56
口口口口 |----|
口口口口 |----|
口口口① |----|
口口口口 |①---|
57
口①①口 |①---|
口②②口 |--②-|
口口口口 |----|
口口口口 |----|
58
②②口口 |----|
口口口口 |①---|
口口口口 |②---|
③口口① |③---|
59
口口④③ |①---②-|
②⑤③④ |--③---|
⑤②⑥① |④---⑤-|
口口①⑥ |--⑥---|
60
③③口口 |①---|
口口口口 |--②-|
口②口口 |----|
口①①口 |③---|
61
⑥口口① |----|
②③④⑤ |----|
口口口口 |①--②③④|
口口口口 |⑤-⑥-|
62
口口③③ |①---|
口口口口 |--②-|
口口②口 |----|
口①①口 |③---|
63
口口口口 |----|
②口口① |----|
⑥⑤④③ |①-②-|
口口口口 |③④⑤⑥--|
64
③③口口 |①---|
口口②口 |--②-|
口口口口 |----|
口①①口 |③---|
65
④⑤⑥口 |----|
②口口① |----|
口口口③ |①-②-|
口口口口 |③--④⑤⑥|
66
口口口① |①---|
口口口口 |--②-|
②②②口 |----|
口③③口 |③---|
67
口口①① |①---|
②口口③ |②-③-|
口口口口
口口口口

⑤⑪口⑩
口⑦⑧口
口⑨④口 |④⑤⑥⑦|
口口口⑥ |⑧⑨⑩⑪|
68
④口口⑤ |①---|
②口⑤③ |②-③-|
口口③① |--④-|
口口①口 |⑤---|
69
②②口③ |----|
口④③① |--①-|
口口口⑤ |②-③-|
口口⑤口 |④-⑤-|
70
⑤口口④ |①---|
③⑤口② |②-③-|
①③口口 |--④-|
口①口口 |⑤---|
71
③①②口 |----|
口③④② |--①-|
⑤口口口 |②-③-|
口⑤口口 |④-⑤-|
72
④口口⑤ |①---|
②口⑤③ |②-③-|
口口③① |--④-|
口口①口 |⑤---|
73
口②③口 |----|
②口口③ |--①-|
口④⑤① |②-③-|
口口口⑤ |④-⑤-|
74
③口口口 |①---|
⑤③口④ |②-③-|
①⑤口② |--④-|
口①口口 |⑤---|
75
③①②② |----|
口③④口 |--①-|
⑤口口口 |②-③-|
口⑤口口 |④-⑤-|
76
④口口⑤ |①---|
②口⑤③ |②-③-|
口口③① |--④-|
口口①口 |⑤---|
77
②②口③ |----|
口④③① |--①-|
口口口⑤ |②-③-|
口口⑤口 |④-⑤-|
78
⑤口口④ |①---|
③⑤口② |②-③-|
①③口口 |--④-|
口①口口 |⑤---|
79
③①②口 |----|
口③④② |--①-|
⑤口口口 |②-③-|
口⑤口口 |④-⑤-|
80
④口口⑤ |①---|
②口⑤③ |②-③-|
口口③① |--④-|
口口①口 |⑤---|
81
④②③口 |----|
②④口③ |--①-|
口口⑤① |②-③-|
口口口⑤ |④-⑤-|
82
⑤口口口 |①---|
③⑤口④ |②-③-|
①③口② |--④-|
口①口口 |⑤---|
83
口口口① |----|
口②口口 |----|
口口③口 |①-②-|
④口口口 |③-④-|
84
口③口口 |①---②-|
⑥口口④ |--③---|
②口口口 |④---⑤-|
口⑤①① |--⑥---|
85
口⑤①口 |①---②-|
口口口⑥ |--③---|
④口口② |④---⑤-|
口口③口 |--⑥---|
86
①口④口 |①---②-|
⑤①口口 |--③---|
口口口③ |④---⑤-|
口②⑥口 |--⑥---|
87
口②⑥口 |①---②-|
口口口① |--③---|
③口口⑤ |④---⑤-|
口④口口 |--⑥---|
88
口③口口 |①---②-|
⑥口口④ |--③---|
②口口口 |④---⑤-|
口⑤①口 |--⑥---|
89
口⑤①口 |①---②-|
口口口⑥ |--③---|
④口口② |④---⑤-|
口口③口 |--⑥---|
90
①口④口 |①---②-|
⑤①口口 |--③---|
口口口③ |④---⑤-|
口②⑥口 |--⑥---|
91
口②⑥口 |①---②-|
口口口① |--③---|
③口口⑤ |④---⑤-|
口④口口 |--⑥---|

最終更新:2012年11月06日 22:12