防衛本脳
Daisy×Daisy

BASIC

Level: 3
BPM: 170
Notes: 233

1
口口口口 |----|
口口口口 |----|
口口口口 |----|
口口口口 |----|
2
口①口口 |①---|
口②口口 |----|
口口口口 |②---|
口口口口 |----|
3
口口口口 |①---|
口口口口 |----|
口①口口 |②---|
口②口口 |----|
4
口口口口 |①---|
口口口口 |----|
①②口口 |②---|
口口口口 |----|
5
口口口口 |①---|
口口口口 |----|
口口①② |②---|
口口口口 |----|
6
口口口口 |①---|
口口口口 |----|
口口②口 |②---|
口口①口 |----|
7
口口②口 |①---|
口口①口 |----|
口口口口 |②---|
口口口口 |----|
8
口口口口 |①---|
口口②① |----|
口口口口 |②---|
口口口口 |----|
9
口口口口 |①---|
②①口口 |----|
口口口口 |②---|
口口口口 |----|
10
口①②口 |①---|
口口口口 |----|
口口口口 |②---|
口口口口 |----|
11
口口口口 |①---|
口②①口 |----|
口口口口 |②---|
口口口口 |----|
12
口口口口 |①---|
口口口口 |----|
口①②口 |②---|
口口口口 |----|
13
口口口口 |①---|
口口口口 |----|
口口口口 |②---|
口②①口 |----|
14
①②口口 |①---|
口口口口 |----|
口口口口 |②---|
口口口口 |----|
15
口口①② |①---|
口口口口 |----|
口口口口 |②---|
口口口口 |----|
16
口口口口 |①---|
口口②① |----|
口口口口 |②---|
口口口口 |----|
17
口口口口 |①---|
②①口口 |----|
口口口口 |②---|
口口口口 |----|
18
口②③口 |----|
口①口口 |①---|
口口口口 |②---|
口口口口 |③---|
19
口口口口 |①---|
口口①口 |----|
口口口口 |②---|
口口②口 |----|
20
口③②口 |----|
口口①口 |①---|
口口口口 |②---|
口口口口 |③---|
21
口口口口 |①---|
口①口口 |----|
口口口口 |②---|
口②口口 |----|
22
口②③口 |----|
口①口口 |①---|
口口口口 |②---|
口口口口 |③---|
23
口口口口 |①---|
口口①口 |----|
口口口口 |②---|
口口②口 |----|
24
口③②口 |----|
口口①口 |①---|
口口口口 |②---|
口口口口 |③---|
25
口口口口 |①---|
口①口口 |②---|
口②④口 |③---|
口③口口 |④---|
26
口①②口 |①---|
口口口口 |----|
口口口口 |②---|
口口口口 |----|
27
口口口口 |①---|
口②①口 |----|
口口口口 |②---|
口口口口 |----|
28
口口口口 |①---|
口口口口 |----|
口①②口 |②---|
口口口口 |----|
29
口口口口 |①---|
口口口口 |----|
口口口口 |②---|
口②①口 |----|
30
①②口口 |①---|
口口口口 |----|
口口口口 |②---|
口口口口 |----|
31
口口①② |①---|
口口口口 |----|
口口口口 |②---|
口口口口 |----|
32
口口口口 |①---|
口口②① |----|
口口口口 |②---|
口口口口 |----|
33
口口口口 |①---|
②①口口 |----|
口口口口 |②---|
口口口口 |----|
34
口口口口 |----|
口①③口 |①---|
口②口口 |②---|
口口口口 |③---|
35
口口口口 |①---|
②口口口 |----|
③口①口 |②---|
口口口口 |③---|
36
口口口口 |----|
口③①口 |①---|
口口②口 |②---|
口口口口 |③---|
37
口口口口 |①---|
口口口② |----|
口①口③ |②---|
口口口口 |③---|
38
①②口口 |----|
口口口③ |①---|
口口口口 |②---|
口口口口 |③---|
39
口口口口 |①---|
口口①口 |----|
②口口口 |②---|
口③③口 |③---|
40
口口口口 |----|
口口口口 |①---|
③口口口 |②---|
口口②① |③---|
41
口②②口 |①---|
口口口口 |----|
口①口口 |②---|
口口口口 |----|
42
②口口② |①---|
口①①口 |----|
口口口口 |②---|
口口口口 |----|
43
口口口口 |①---|
口①①口 |----|
口②②口 |②---|
口口口口 |----|
44
口口口口 |①---|
口②口口 |----|
口口②口 |----|
①口口① |②---|
45
口口口口 |①---|
②口①② |----|
②①口② |②---|
口口口口 |----|
46
口①①口 |①---|
②口口② |----|
口口口口 |②---|
口口口口 |----|
47
口口口口 |①---|
口口口口 |----|
①口口① |②---|
口②②口 |----|
48
③口口③ |①---|
②①①② |----|
口①①口 |②---|
口口口口 |③---|
49
口①①口 |①---|
口口口口 |--②-|
口②②口 |③---|
口③③口 |----|
50
口①①口 |①---|
口②②口 |----|
口口口口 |②---|
口口口口 |----|
51
②口口口 |①---|
③口口口 |②---|
④口口口 |③---|
口①①口 |④---|
52
口口口② |①---|
口口口口 |----|
口口口口 |----|
①口口口 |②---|
53
口口口口 |①---|
口②②① |----|
口③③口 |②---|
口口口口 |③---|
54
口口口② |①---|
口口口口 |----|
口口口口 |----|
口①①口 |②---|
55
口口口口 |①---|
口口口① |②---|
口口口② |③---|
口口口③ |----|
56
①口口口 |①---|
②口口口 |②---|
③口口口 |③---|
④口口口 |④---|
57
口③③口 |①---|
口③③口 |②---|
口②口口 |③---|
口①口口 |----|
58
口口口③ |①---|
①口口① |----|
口②②口 |②---|
口口口口 |③---|
59
口口口口 |①---|
口口口① |②---|
口口口② |③---|
口口④③ |④---|
60
②口口口 |①---|
口口口口 |----|
口口①口 |----|
口口口口 |②---|
61
口口口② |①---|
①口口③ |----|
口口口口 |②---|
口口口口 |③---|
62
②口口口 |①---|
口口口口 |----|
口口口① |----|
口口口口 |②---|
63
口口口口 |①---|
①②②口 |----|
口口口口 |②---|
口口口口 |----|
64
口口口① |①---|
口口口② |----|
口口口口 |②---|
口口口口 |----|
65
口口口口 |①---|
口口口口 |----|
口口口① |②---|
口口口② |----|
66
口②口口 |①---|
口①①口 |----|
口①①口 |②---|
口口口口 |----|
67
口口口口 |①---|
①口口口 |----|
②口口口 |②---|
口口口口 |----|
68
口口口口 |①---|
口口口口 |----|
口口口口 |②---|
口①②口 |----|
69
口口口口 |①---|
口口口② |----|
口口口① |②---|
口口口口 |----|
70
②①①口 |①---|
③口口口 |----|
口口口口 |②---|
口口口口 |③---|
71
口口口② |①---|
口口口③ |----|
①口口口 |②---|
口口口口 |③---|
72
口口口口 |①---|
口口口口 |----|
③口口① |②---|
口②口口 |③---|
73
口口④口 |①---|
口①口③ |②---|
口口②口 |③---|
口口口口 |④---|
74
口①②口 |①---|
口口口口 |----|
口口口口 |②---|
口口口口 |----|
75
口口口口 |①---|
口②①口 |----|
口口口口 |②---|
口口口口 |----|
76
口口口口 |①---|
口口口口 |----|
口①②口 |②---|
口口口口 |----|
77
口口口口 |①---|
口口口口 |----|
口口口口 |②---|
口②①口 |----|
78
①②口口 |①---|
口口口口 |----|
口口口口 |②---|
口口口口 |----|
79
口口①② |①---|
口口口口 |----|
口口口口 |②---|
口口口口 |----|
80
口口口口 |①---|
口口②① |----|
口口口口 |②---|
口口口口 |----|
81
口口口口 |①---|
②①口口 |----|
口口口口 |②---|
口③③口 |③---|


不确定度: 0

最終更新:2012年11月14日 15:10