防衛本脳
Daisy×Daisy

ADVANCED

Level: 6
BPM: 170
Notes: 547

1
口口口口 |----|
口口口口 |----|
口口口口 |----|
口口口口 |----|
2
①口口① |①---|
③口口③ |②---|
②口口② |③---|
④口口④ |④---|
3
口①①口 |①---|
口③③口 |②---|
口②②口 |③---|
口④④口 |④---|
4
①口口① |①---|
③口口③ |②---|
②口口② |③---|
④口口④ |④---|
5
口①①口 |①---|
口③③口 |②---|
口②②口 |③---|
口④④口 |④---|
6
①口口① |①---|
③口口③ |②---|
②口口② |③---|
④口口④ |④---|
7
口①①口 |①---|
口③③口 |②---|
口②②口 |③---|
口④④口 |④---|
8
①口口① |①---|
③口口③ |②---|
②口口② |③---|
④口口④ |④---|
9
口①①口 |①---|
口③③口 |②---|
口②②口 |③---|
口④④口 |④---|
10
①口口② |①---|
口③④口 |②---|
口④③口 |③---|
②口口① |④---|
11
口③④口 |①---|
①口口② |②---|
②口口① |③---|
口④③口 |④---|
12
①口口② |①---|
口③④口 |②---|
口④③口 |③---|
②口口① |④---|
13
口③④口 |①---|
①口口② |②---|
②口口① |③---|
口④③口 |④---|
14
①口口② |①---|
口③④口 |②---|
口④③口 |③---|
②口口① |④---|
15
口③④口 |①---|
①口口② |②---|
②口口① |③---|
口④③口 |④---|
16
①口口② |①---|
口③④口 |②---|
口④③口 |③---|
②口口① |④---|
17
口③④口 |①---|
①口口② |②---|
②口口① |③---|
口④③口 |④---|
18
①口口④ |----|
口②⑤口 |①-②-|
口口③口 |③---|
口口口口 |④-⑤-|
19
口口口口 |--①-|
口口口口 |--②-|
①口口口 |----|
②①口口 |----|
20
④口口① |----|
口⑤②口 |①-②-|
口③口口 |③---|
口口口口 |④-⑤-|
21
口口口口 |--①-|
口口口① |②-③-|
口口①② |----|
口①②③ |----|
22
①口口④ |----|
口②⑤口 |①-②-|
口口③口 |③---|
口口口口 |④-⑤-|
23
口口口口 |--①-|
①口口口 |--②-|
口①口口 |----|
②口①口 |----|
24
①②口口 |----|
②③口口 |①-②-|
口口口④ |③---|
口口④⑤ |④-⑤-|
25
口口口① |--①-|
口⑤②口 |②-③-|
④③⑤口 |④---|
口④口口 |⑤---|
26
①口口② |①---|
口③④口 |②---|
口④③口 |③---|
②口口① |④---|
27
口③④口 |①---|
①口口② |②---|
②口口① |③---|
口④③口 |④---|
28
①口口② |①---|
口③④口 |②---|
口④③口 |③---|
②口口① |④---|
29
口③④口 |①---|
①口口② |②---|
②口口① |③---|
口④③口 |④---|
30
①口口② |①---|
口③④口 |②---|
口④③口 |③---|
②口口① |④---|
31
口③④口 |①---|
①口口② |②---|
②口口① |③---|
口④③口 |④---|
32
①口口② |①---|
口③④口 |②---|
口④③口 |③---|
②口口① |④---|
33
口③④口 |①---|
①口口② |②---|
②口口① |③---|
口④③口 |④---|
34
①口口② |----|
口③④口 |①-②-|
口⑤⑥口 |③-④-|
口口口口 |⑤-⑥-|
35
口口口口 |--①-|
①口口② |--②-|
③口口④ |--③-|
口⑤⑤口 |④-⑤-|
36
口①②口 |----|
③口口④ |①-②-|
口⑤⑥口 |③-④-|
口口口口 |⑤-⑥-|
37
口口口口 |--①-|
口口口口 |②-③-|
①口④② |----|
⑤③口⑤ |④-⑤-|
38
①口口③ |----|
②⑤口④ |①-②-|
口⑥口口 |③-④-|
口口口口 |⑤-⑥-|
39
口口口口 |--①-|
口口①口 |--②-|
③口口口 |----|
④口②口 |③-④-|
40
④口口① |----|
口⑤②口 |①-②-|
⑥口口③ |③-④-|
口口口口 |⑤-⑥-|
41
口口口口 |--①-|
口⑤口口 |②-③-|
口口⑤口 |④---|
④③②① |⑤---|
42
口①②口 |①---|
口口口② |----|
口口口① |②---|
口口口口 |----|
43
口①口口 |①---|
①口口口 |----|
②口口口 |②---|
口②口口 |----|
44
口口口口 |①---|
口口口口 |----|
口口口①
口口①口

口口口口
口②②口
②口口② |----|
口口口口 |②---|
45
口②②口 |①---|
②口口② |--②-|
口口口口 |----|
口①①口 |----|
46
①口口② |①---|
口口口口 |----|
①口口② |②---|
口口口口 |----|
47
口口口口 |①---|
①口口② |----|
口口口口 |②---|
①口口② |----|
48
口②③口 |①---|
②口口③ |----|
口①①口 |②---|
口①①口 |③---|
49
②口口② |①---|
口①①口 |--②-|
口③③口 |③---|
①口口① |----|
50
口口口口 |①---|
①口口② |--②-|
②口口① |----|
口③③口 |③---|
51
口②④口 |①---|
①口口③ |②---|
口②④口 |③---|
①口口③ |④---|
52
①口口① |①---|
②①①② |----|
③口口③ |----|
口口口口 |②-③-|
53
②口口② |①---|
口③③口 |--②-|
口口口口 |----|
①口口① |③---|
54
口口口口 |①---|
口②口口 |----|
口口②口 |----|
①①①① |②---|
55
②口口③ |①---|
④口①口 |②-③-|
口①口口 |----|
③口口② |--④-|
56
口口口口 |①---|
口口口② |②-③-|
①口口③ |--④-|
口④④口 |----|
57
口①①口 |①---|
口②③口 |②-③-|
口③②口 |----|
口口口口 |----|
58
口口口口 |①---|
口口③口 |--②-|
②口口口 |----|
①②口口 |③---|
59
口口口① |①---|
口口口口 |②---|
口口④② |③---|
口③口口 |④---|
60
①①口口 |①---|
①②③口 |----|
口口口口 |----|
口②③口 |②-③-|
61
口口③③ |①---|
口口口① |--②-|
②②口口 |----|
口口口① |③---|
62
口口口口 |①---|
口①①口 |----|
口口口口
①口口①

②口口口
口②口口
口口口口 |----|
口口口口 |②---|
63
口口口① |①---|
口口①口 |②-③-|
②口口② |----|
③④④③ |--④-|
64
口③③口 |①---|
口①①口 |②-③-|
口②②口 |--④-|
④口口④ |----|
65
①⑤⑤① |①---|
口④④口 |②-③-|
②口口② |--④-|
口③③口 |⑤---|
66
口口口口 |----|
①口口② |----|
①口口② |①---|
口口口口 |②---|
67
③口口④ |①---|
④口口③ |②---|
口①①口 |③---|
口②②口 |④---|
68
④口口口 |①---|
口①①口 |--②-|
②口口② |③---|
③口口③ |--④-|
69
口口口① |①---|
口口口口 |②---|
②③③② |③---|
口④④口 |④---|
70
口口口口 |----|
口口口① |----|
口口口① |①---|
口②②口 |②---|
71
口②②口 |①---|
①③③口 |----|
①口口口 |②---|
口口口口 |③---|
72
②口口③ |①---|
口口口口 |----|
口①①口 |②---|
③口口② |③---|
73
口口口口 |①---|
③①②④ |②---|
④②①③ |③---|
口口口口 |④---|
74
①口口② |①---|
口③④口 |②---|
口④③口 |③---|
②口口① |④---|
75
口③④口 |①---|
①口口② |②---|
②口口① |③---|
口④③口 |④---|
76
①口口② |①---|
口③④口 |②---|
口④③口 |③---|
②口口① |④---|
77
口③④口 |①---|
①口口② |②---|
②口口① |③---|
口④③口 |④---|
78
①口口② |①---|
口③④口 |②---|
口④③口 |③---|
②口口① |④---|
79
口③④口 |①---|
①口口② |②---|
②口口① |③---|
口④③口 |④---|
80
①口口② |①---|
口③④口 |②---|
口④③口 |③---|
②口口① |④---|
81
口③④口 |①---|
①⑤⑤② |②---|
②⑤⑤① |③---|
口④③口 |④-⑤-|


不确定度: 0

最終更新:2012年11月14日 15:10