恋のダイヤル6700
Dream5

ADVANCED

Level: 6
BPM: 170
Notes: 372

1
口口口口 |----|
口口口口 |----|
口口口口 |----|
口口口口 |----|
2
口口口口 |----|
口口口口 |----|
口口口口 |----|
口口口口 |----|
3
口口口口 |----|
口口口口 |----|
口口口口 |----|
口口口口 |----|
4
口口口口 |----|
口口口口 |----|
口口口口 |----|
口口口口 |----|
5
口口口口 |----|
口口口口 |----|
口口口口 |----|
口口口口 |----|
6
口口口口 |----|
口口口口 |----|
口口口口 |----|
口口口口 |----|
7
口口口口 |----|
口口口口 |----|
口口口口 |----|
口口口口 |----|
8
口口口口 |①---|
口①②口 |②---|
口④③口 |③---|
口口口口 |④---|
9
③④口口 |①---|
②口口口 |②---|
①口口口 |③---|
口口口口 |④---|
10
口口①② |①---|
口口口③ |②---|
口口口④ |③---|
口口口口 |④---|
11
口口口口 |①---|
口口口口 |②---|
口口口口 |③---|
④③②① |④---|
12
口口口口 |①---|
①②④③ |②---|
口⑤口口 |③-④-|
口口口口 |--⑤-|
13
口口口口 |--①-|
口①④口 |--②-|
②口③口 |③---|
口口口口 |④---|
14
口⑤口口 |①---|
①②④③ |②---|
口口口口 |③-④-|
口口口口 |--⑤-|
15
口口①口 |--①-|
口②口口 |②-③-|
口口③口 |④---|
口④口口 |----|
16
口②口口 |①---|
①口口口 |②---|
口①口口
口口口口

口口④口
⑤口口③
口⑤口口 |③-④-|
口口口口 |--⑤-|
17
口①③口 |--①-|
口④口② |--②-|
口口口口 |③---|
口口口口 |④---|
18
⑤②口口 |①---|
①口④口 |②---|
口①口③ |③-④-|
口口口口 |--⑤-|
19
口口①口 |--①-|
口②口口 |②-③-|
口口③口 |④---|
口④口口 |----|
20
口②口口 |①---|
①口口口 |②---|
口①口口
口口①口

口口④口
⑤口口③
口⑤口口 |③-④-|
口口口口 |--⑤-|
21
口①③口 |--①-|
口④口② |--②-|
口口口口 |③---|
口口口口 |④---|
22
⑤②口口 |①---|
①口④口 |②---|
口①口③ |③-④-|
口口①口 |--⑤-|
23
⑤口①⑤ |--①-|
口②口口 |②-③-|
口口③口 |④---|
口④口口 |⑤---|
24
口口口口 |①---|
口口口口 |②---|
①④⑥② |③-④-|
口③⑤口 |⑤-⑥-|
25
口④⑥口 |①---|
①③⑤② |②---|
口口口口 |③-④-|
口口口口 |⑤-⑥-|
26
口口口口 |①---|
口口口口 |②---|
口④⑥口 |③-④-|
①③⑤② |⑤-⑥-|
27
②②②② |①---|
①口口① |②---|
口④口口 |--③-|
③口⑤口 |④-⑤-|
28
口口口口 |①---|
口②口③ |②---|
口⑥⑤④ |③-④-|
口①口口 |⑤-⑥-|
29
③③③③ |①---|
②口口② |②---|
①口⑤口 |③-④-|
口⑥口④ |⑤-⑥-|
30
口口口口 |①---|
③口②口 |②---|
④⑤⑥口 |③-④-|
口口①口 |⑤-⑥-|
31
③③③③ |①---|
②口口② |②---|
口⑤口① |③-④-|
④口⑥口 |⑤-⑥-|
32
口口口口 |①---|
口②口③ |②---|
口⑥⑤④ |③-④-|
口①口口 |⑤-⑥-|
33
③③③③ |①---|
②口口② |②---|
①口⑤口 |③-④-|
口⑥口④ |⑤-⑥-|
34
口口口口 |①---|
③口②口 |②---|
④⑤⑥口 |③-④-|
口口①口 |⑤-⑥-|
35
③口口③ |①---|
②⑥口② |②---|
口口⑤① |③-④-|
口④口口 |⑤-⑥-|
36
④④④④ |①---|
②口口① |②---|
口③③口 |③---|
②口口① |④---|
37
口口口口 |①---|
口①②口 |②---|
③口口④ |③---|
口②①口 |④---|
38
②②②② |①---|
口①①口 |②---|
口口口口 |----|
口口口口 |----|
39
口口口口 |①-②-|
口口①口 |--③-|
口②口口 |----|
③口口③ |----|
40
口口口口 |----|
口口口口 |----|
口口口口 |----|
口口口口 |----|
41
①口口口 |①---|
口②口口 |②---|
口口③④ |③---|
口口④口 |④---|
42
口口口口 |①---|
口口口② |--②-|
口口口口 |----|
口②口① |----|
43
口口口① |①---|
口口②口 |②---|
④③口口 |③---|
口④口口 |④---|
44
口口口口 |①---|
口口口口 |--②-|
口②口口 |----|
①口口口 |----|
45
④④口口 |①---|
③口口口 |②---|
②口口口 |③---|
口①口口 |④---|
46
口口③④ |①---|
口①②⑤ |②---|
口口口口 |③-④-|
口口口口 |--⑤-|
47
口口口口 |----|
口口口口 |----|
④口口① |①-②-|
口③②口 |③-④-|
48
口口口口 |----|
口口口口 |----|
口口口口 |----|
口口口口 |----|
49
口口④口 |①---|
口口③④ |②---|
口②口口 |③---|
①口口口 |④---|
50
口口口① |①---|
口口②口 |--②-|
口口口口 |----|
口口口口 |----|
51
口④口口 |①---|
④③口口 |②---|
口口②口 |③---|
口口口① |④---|
52
①口口口 |①---|
口②口口 |--②-|
口口口口 |----|
口口口口 |----|
53
口口④④ |①---|
口口口③ |②---|
口口口② |③---|
口口①口 |④---|
54
④③口口 |①---|
⑤②①口 |②---|
口口口口 |③-④-|
口口口口 |--⑤-|
55
口口口口 |----|
口口口口 |----|
①口口④ |①-②-|
口②③口 |③-④-|
56
口口口口 |----|
口口口口 |----|
口②口口 |--①-|
①口③口 |②-③-|
57
口口口口 |①---|
口②口③ |②---|
口⑥⑤④ |③-④-|
口①口口 |⑤-⑥-|
58
③③③③ |①---|
②口口② |②---|
①口⑤口 |③-④-|
口⑥口④ |⑤-⑥-|
59
口口口口 |①---|
③口②口 |②---|
④⑤⑥口 |③-④-|
口口①口 |⑤-⑥-|
60
③③③③ |①---|
②口口② |②---|
口⑤口① |③-④-|
④口⑥口 |⑤-⑥-|
61
口口口口 |①---|
口②口③ |②---|
口⑥⑤④ |③-④-|
口①口口 |⑤-⑥-|
62
③③③③ |①---|
②口口② |②---|
①口⑤口 |③-④-|
口⑥口④ |⑤-⑥-|
63
口口口口 |①---|
③口②口 |②---|
④⑤⑥口 |③-④-|
口口①口 |⑤-⑥-|
64
③口口③ |①---|
②⑥口② |②---|
口口⑤① |③-④-|
口④口口 |⑤-⑥-|
65
④④④④ |①---|
②口口① |②---|
口③③口 |③---|
②口口① |④---|
66
口口口口 |①---|
口①②口 |②---|
③口口④ |③---|
口②①口 |④---|
67
②②②② |①---|
口①①口 |②---|
口口口口 |----|
口口口口 |----|
68
口口口口 |①-②-|
口⑥①口 |--③-|
③②⑤③ |--④-|
口④口口 |⑤-⑥-|
69
④④④④ |①---|
②口口① |②---|
口③③口 |③---|
②口口① |④---|
70
口口口口 |①---|
口①②口 |②---|
③口口④ |③---|
口②①口 |④---|
71
②②②② |①---|
口①①口 |②---|
口口口口 |----|
口口口口 |----|
72
①①①① |----|
口口口口 |----|
口口口口 |----|
口口口口 |--①-|


不確定度: 0

最終更新:2013年05月27日 21:06