恋のダイヤル6700
Dream5

EXTREME

Level: 7
BPM: 170
Notes: 605

1
口口口口 |----|
口口口口 |----|
口口口口 |----|
口口口口 |----|
2
口口口口 |----|
口口口口 |----|
口口口口 |----|
口口口口 |----|
3
口口口口 |----|
口口口口 |----|
口口口口 |----|
口口口口 |----|
4
口口口口 |----|
口口口口 |----|
口口口口 |----|
口口口口 |----|
5
口口口口 |----|
口口口口 |----|
口口口口 |----|
口口口口 |----|
6
口口口口 |----|
口口口口 |----|
口口口口 |----|
口口口口 |----|
7
口口口口 |----|
口口口口 |----|
口口口口 |----|
口口口口 |----|
8
⑦⑧口口 |①-②-|
⑥①②口 |③-④-|
⑤④③口 |⑤-⑥-|
口口口口 |⑦-⑧-|
9
口口①② |①-②-|
口口口③ |③-④-|
口口口④ |⑤-⑥-|
⑧⑦⑥⑤ |⑦-⑧-|
10
③④⑤⑥ |①-②-|
②口口⑦ |③-④-|
①口口⑧ |⑤-⑥-|
口口口口 |⑦-⑧-|
11
⑦⑧口口 |①-②-|
⑥口口口 |③-④-|
⑤口口口 |⑤-⑥-|
④③②① |⑦-⑧-|
12
口口口口 |①---|
口口口② |②---|
口口②①
口口①口

口口口口
④③口口
③④口⑤ |③-④-|
口口⑤口 |--⑤-|
13
口②口口 |--①-|
口口②① |--②-|
④③①口 |③---|
③④口口 |④---|
14
口口口⑤ |①---|
④③⑤② |②---|
③④②① |③-④-|
口口①口 |--⑤-|
15
口口口口 |--①-|
④③口② |②-③-|
③④②① |④---|
口口①口 |----|
16
口口口② |①---|
口口②① |②---|
口口①口
口口口口

口口口口
④③口⑤
③④⑤口 |③-④-|
口口口口 |--⑤-|
17
口口②① |--①-|
口②①口 |--②-|
④③口口 |③---|
③④口口 |④---|
18
口⑤口② |①---|
⑤口②① |②---|
④③①口 |③-④-|
③④口口 |--⑤-|
19
口口口口 |--①-|
口口口② |②-③-|
④③②① |④---|
③④①口 |----|
20
口口口口 |①---|
口口口② |②---|
口口②①
口口①口

口口口口
④③口口
③④口⑤ |③-④-|
口口⑤口 |--⑤-|
21
口②口口 |--①-|
口口②① |--②-|
④③①口 |③---|
③④口口 |④---|
22
口口口⑤ |①---|
④③⑤② |②---|
③④②① |③-④-|
口口①口 |--⑤-|
23
⑤⑤⑤⑤ |--①-|
④③口② |②-③-|
③④②① |④---|
口口①口 |⑤---|
24
口口口口 |①---|
⑤⑥②口 |②---|
④③口口 |③-④-|
口①②① |⑤-⑥-|
25
①②①口 |①---|
口口③④ |②---|
口②⑥⑤ |③-④-|
口口口口 |⑤-⑥-|
26
口口口口 |①---|
⑤⑥②口 |②---|
④③口口 |③-④-|
口①②① |⑤-⑥-|
27
①①①① |①---|
口口口口 |②---|
口口口口
②②②②

⑤口口口
④口口口
③口口口 |--③-|
口口口口 |④-⑤-|
28
口①③⑥ |①-②-|
口②⑤⑦ |③---|
口口④口 |④-⑤-|
口口口口 |⑥-⑦-|
29
③③③③ |①---|
④⑤⑥口 |②---|
口口口① |③-④-|
②②②② |⑤-⑥-|
30
口口口口 |①-②-|
口⑦⑧口 |③-④-|
⑤⑥②① |⑤-⑥-|
口口④③ |⑦-⑧-|
31
③③③③ |①---|
口口口① |②---|
口⑥⑤④ |③-④-|
②②②② |⑤-⑥-|
32
口⑥③口 |①-②-|
⑤②⑦④ |③-④-|
①口口⑧ |⑤-⑥-|
口口口口 |⑦-⑧-|
33
口口口口 |①---|
口口口口 |②---|
①口口口
②②②②

③③③③
④⑥口口
⑤口口口 |③-④-|
口口口口 |⑤-⑥-|
34
口口口口 |①-②-|
⑤⑥③① |③-④-|
⑦⑧④② |⑤-⑥-|
口口口口 |⑦-⑧-|
35
③③③③ |①---|
④口⑥口 |②---|
口⑤口① |③-④-|
②②②② |⑤-⑥-|
36
⑤⑤⑤⑤ |①-②-|
口④口③ |③---|
①口②① |④---|
口③口④ |⑤---|
37
口口口口 |①---|
①口口口 |②---|
①①②②
①①口②

④④③③
④④③③
口口口口 |③---|
口口口口 |④---|
38
口口口口 |①---|
口口口口 |②---|
②②②② |----|
口①①口 |----|
39
①口①口 |①---|
①①①口 |----|
①口①口 |----|
口口口口 |----|
40
口口口口 |----|
口口口口 |----|
口口口口 |----|
口口口口 |----|
41
口⑦⑦⑧ |①-②-|
⑥⑤⑤口 |③-④-|
口③③④ |⑤-⑥-|
②①①口 |⑦-⑧-|
42
口口口口 |①---|
口口口口 |--②-|
②②②② |----|
①①①① |----|
43
口①①② |①-②-|
④③③口 |③-④-|
口⑤⑤⑥ |⑤-⑥-|
⑧⑦⑦口 |⑦-⑧-|
44
①①①① |①---|
②②②② |--②-|
口口口口 |----|
口口口口 |----|
45
口⑥口② |①-②-|
⑦口③口 |③-④-|
口口口口 |⑤-⑥-|
⑧⑤④① |⑦-⑧-|
46
⑤⑤⑤⑤ |①---|
④②③① |②---|
②④①③ |③-④-|
口口口口 |--⑤-|
47
口口口口 |----|
口②口④ |----|
①口③口 |①-②-|
口②口④ |③-④-|
48
口口口口 |----|
口口口口 |----|
口口口口 |----|
口口口口 |----|
49
口⑦⑦⑧ |①-②-|
⑥⑤⑤口 |③-④-|
口③③④ |⑤-⑥-|
②①①口 |⑦-⑧-|
50
口口口口 |①---|
口口口口 |--②-|
②②②② |----|
①①①① |----|
51
口①①② |①-②-|
④③③口 |③-④-|
口⑤⑤⑥ |⑤-⑥-|
⑧⑦⑦口 |⑦-⑧-|
52
①①①① |①---|
②②②② |--②-|
口口口口 |----|
口口口口 |----|
53
口⑥口② |①-②-|
⑦口③口 |③-④-|
口口口口 |⑤-⑥-|
⑧⑤④① |⑦-⑧-|
54
⑤⑤⑤⑤ |①---|
④②③① |②---|
②④①③ |③-④-|
口口口口 |--⑤-|
55
口口口口 |----|
口②口④ |----|
①口③口 |①-②-|
口②口④ |③-④-|
56
③口口口 |----|
②口口口 |----|
①口口口 |--①-|
口口口口 |②-③-|
57
口①③⑥ |①-②-|
口②⑤⑦ |③---|
口口④口 |④-⑤-|
口口口口 |⑥-⑦-|
58
③③③③ |①---|
④⑤⑥口 |②---|
口口口① |③-④-|
②②②② |⑤-⑥-|
59
口口口口 |①-②-|
口⑦⑧口 |③-④-|
⑤⑥②① |⑤-⑥-|
口口④③ |⑦-⑧-|
60
③③③③ |①---|
口口口① |②---|
口⑥⑤④ |③-④-|
②②②② |⑤-⑥-|
61
口⑥③口 |①-②-|
⑤②⑦④ |③-④-|
①口口⑧ |⑤-⑥-|
口口口口 |⑦-⑧-|
62
口口口口 |①---|
口口口口 |②---|
①口口口
②②②②

③③③③
④⑥口口
⑤口口口 |③-④-|
口口口口 |⑤-⑥-|
63
口口口口 |①-②-|
⑤⑥③① |③-④-|
⑦⑧④② |⑤-⑥-|
口口口口 |⑦-⑧-|
64
③③③③ |①---|
④口⑥口 |②---|
口⑤口① |③-④-|
②②②② |⑤-⑥-|
65
⑤⑤⑤⑤ |①-②-|
口④口③ |③---|
①口②① |④---|
口③口④ |⑤---|
66
口口口口 |①---|
①口口口 |②---|
①①②②
①①口②

④④③③
④④③③
口口口口 |③---|
口口口口 |④---|
67
口口口口 |①---|
口口口口 |②---|
②②②② |----|
口①①口 |----|
68
口口口口 |①---|
口①口① |----|
口①①①
口①口①

口口口口
②口④口
口③口口 |--②-|
口口口口 |③-④-|
69
⑤⑤⑤⑤ |①-②-|
口④口③ |③---|
①口②① |④---|
口③口④ |⑤---|
70
口口口口 |①---|
①口口口 |②---|
①①②②
①①口②

④④③③
④④③③
口口口口 |③---|
口口口口 |④---|
71
口口口口 |①---|
口口口口 |②---|
②②②② |----|
口①①口 |----|
72
口口口口 |①---|
①口①口 |----|
①①①口
①口①口

④④④④
④口口④
口②③口 |----|
口③②口 |②③④-|


不確定度: 0

最終更新:2013年05月27日 21:03