15 Doors
moumoon

EXTREME

Level: 8
BPM: 163
Notes: 510

1
口口口口 |----|
口口口口 |----|
口口口口 |----|
口口口口 |----|
2
口口口⑥ |①-②-|
④⑤口③ |③---|
①②口① |④-⑤-|
口口⑦口 |⑥-⑦-|
3
口口③③ |--①-|
②口口口 |②---|
④④①口 |③---|
②口口口 |④---|
4
③口口口 |①-②-|
口⑥④④ |③-④-|
⑤⑤⑥② |--⑤-|
①口口口 |--⑥-|
5
口④④口 |--①-|
③⑤口③ |②-③-|
口口口② |--④-|
①口口口 |⑤---|
6
口口口⑥ |①-②-|
④⑤口③ |③---|
①②口① |④-⑤-|
口口⑦口 |⑥-⑦-|
7
口口③③ |--①-|
②口口口 |②---|
④④①口 |③---|
②口口口 |④---|
8
③口口口 |①-②-|
口⑥④④ |③-④-|
⑤⑤⑥② |--⑤-|
①口口口 |--⑥-|
9
③口口③ |--①-|
④⑤⑥④ |②-③-|
口口口② |④-⑤-|
①口口口 |⑥---|
10
口②③口 |①---|
口口口口 |----|
①③②① |②-③-|
口④④口 |--④-|
11
①口口① |--①-|
口③口口 |②---|
②口口② |③---|
口④口口 |④---|
12
③口口口 |①-②-|
口⑥④④ |③-④-|
⑤⑤⑥② |--⑤-|
①口口口 |--⑥-|
13
③口口③ |--①-|
④⑤口④ |②-③-|
口口口② |--④-|
①口口口 |⑤---|
14
口②③口 |①---|
口口口口 |----|
①③②① |②-③-|
口④④口 |--④-|
15
①口口① |--①-|
口③口口 |②---|
②口口② |③---|
口④口口 |④---|
16
③口口口 |①-②-|
口⑥④④ |③-④-|
⑤⑤⑥② |--⑤-|
①口口口 |--⑥-|
17
口④口口 |--①-|
③口⑤③ |②-③-|
口口口② |④-⑤-|
①⑥⑥口 |⑥---|
18
①口口① |①-②-|
⑤③⑤③ |③---|
②口②口 |④-⑤-|
④⑥④⑥ |⑥---|
19
③①③① |①-②-|
⑥口口⑥ |③-④-|
②④②④ |⑤---|
⑤口⑤口 |⑥---|
20
口口口口 |①---|
口①①口 |②-③-|
口口③口 |----|
口②口口 |----|
21
口口口口 |①---|
口口口口 |②---|
口口口口 |③---|
①②③④ |④---|
22
①口口① |①-②-|
⑤③⑤③ |③---|
②口②口 |④-⑤-|
④⑥④⑥ |⑥---|
23
③①③① |①-②-|
⑥口口⑥ |③-④-|
②④②④ |⑤---|
⑤口⑤口 |⑥---|
24
口口口口 |①---|
口①①口 |②-③-|
口口③口 |----|
口②口口 |----|
25
口口口口 |①---|
口口口口 |②---|
口口口口 |③---|
①②④③ |④---|
26
①口口① |①-②-|
⑤③⑤③ |③---|
②口②口 |④-⑤-|
④⑥④⑥ |⑥---|
27
③①③① |①-②-|
⑥口口⑥ |③-④-|
②④②④ |⑤---|
⑤口⑤口 |⑥---|
28
口口口口 |①---|
口①①口 |②-③-|
口口③口 |----|
口②口口 |----|
29
口口口口 |①---|
口口口口 |②---|
口口口口 |③---|
①②③④ |④---|
30
①口口① |①-②-|
⑤③⑤③ |③---|
②口②口 |④-⑤-|
④⑥④⑥ |⑥---|
31
③①③① |①-②-|
⑥口口⑥ |③-④-|
②④②④ |⑤---|
⑤口⑤口 |⑥---|
32
口口口口 |①---|
口①①口 |②-③-|
口口③口 |----|
口②口口 |----|
33
口口口口 |①---|
口口口口 |②---|
口口口口 |③---|
①②④③ |④---|
34
口口③口 |①---|
①口口① |----|
口②口④ |--②-|
口口口口 |③-④-|
35
①口口② |①-②-|
③⑤⑤④ |③-④-|
口⑥口口 |⑤---|
口口⑥口 |⑥---|
36
②①①④ |①---|
③③口口 |--②-|
口口③③ |③---|
④口口② |--④-|
37
口口①口 |①---|
②口①② |----|
口①口口 |②---|
口①口口 |----|
38
口口③口 |①---|
口①①口 |----|
②①①④ |--②-|
口口口口 |③-④-|
39
①口口② |①-②-|
③⑤⑤④ |③-④-|
口⑥口口 |⑤---|
口口⑥口 |⑥---|
40
②①①④ |①---|
③③口口 |--②-|
口口③③ |③---|
④口口② |--④-|
41
口口①口 |①---|
②口③② |--②-|
②③口② |③---|
口①口口 |----|
42
口①①口 |①---|
口①口口 |----|
口口①口
口①①口

④口口④
⑤⑤口口
口口口③ |②-③-|
②口口口 |④-⑤-|
43
口口口口 |--①-|
口④②③ |②---|
口口口③ |③---|
口口①口 |④---|
44
②③口② |①---|
口④④口 |②---|
口口口③ |③-④-|
口①⑤口 |--⑤-|
45
口⑤口⑥ |--①-|
②③口口 |②-③-|
口④口口 |--④-|
①口口③ |⑤-⑥-|
46
口口口口 |①---|
①口①① |----|
①口①①
口口口口

③口口③
④④口口
口口口口 |②---|
口②②口 |③-④-|
47
③③口口 |--①-|
口口④② |②---|
口口口口 |③---|
口口口① |④---|
48
②口口② |①---|
口口③口 |②---|
⑤⑤口口 |③-④-|
口①④口 |--⑤-|
49
口⑤口口 |--①-|
口②口⑥ |②-③-|
口口④口 |--④-|
口③③① |⑤-⑥-|
50
①口②② |①---|
①口②口 |②---|
①口口②
①口②②

⑥⑥口口
口口口⑤
口④口口 |③-④-|
口③口口 |⑤-⑥-|
51
口口口口 |--①-|
口④②③ |②---|
口口口③ |③---|
口口①口 |④---|
52
②③口② |①---|
口④④口 |②---|
口口口③ |③-④-|
口①⑤口 |--⑤-|
53
⑥口口⑥ |--①-|
口⑤口② |②-③-|
①口④口 |--④-|
口③口③ |⑤-⑥-|
54
口口口⑥ |①-②-|
④⑤口③ |③---|
①②口① |④-⑤-|
口口⑦口 |⑥-⑦-|
55
口口③③ |--①-|
②口口口 |②---|
④④①口 |③---|
②口口口 |④---|
56
②口口② |①---|
口⑤③③ |②---|
④④⑤口 |③-④-|
①口口① |--⑤-|
57
口口口口 |--①-|
口⑤⑥② |②-③-|
口④口口 |--④-|
③①口③ |⑤-⑥-|
58
口②③口 |①---|
口口口口 |----|
①③②① |②-③-|
口④④口 |--④-|
59
①口口① |--①-|
口③口口 |②---|
②口口② |③---|
口④口口 |④---|
60
②④③③ |①---|
②口③④ |②---|
②口①③ |③---|
②④③③ |--④-|
61
口口口口 |----|
口口②口 |①-②-|
口口口口 |--③-|
①口③口 |----|
62
口②③口 |①---|
口口口口 |----|
①③②① |②-③-|
口④④口 |--④-|
63
①口口① |--①-|
口③口口 |②---|
②口口② |③---|
口④口口 |④---|
64
②④③③ |①---|
②口③④ |②---|
②口①③ |③---|
②④③③ |--④-|
65
口口口口 |----|
口②③口 |①---|
口④⑤口 |②-③-|
①口口① |④-⑤-|


不確定度: 0

最終更新:2013年05月27日 19:57