タッチ
BASIC
Level: 1
BPM: 161
Notes: 127
1
口口口口 |----|
口口口口 |----|
口口口口 |----|
口①①口 |--①-|
2
口口口口 |----|
口口口口 |----|
口口口口 |----|
口口口口 |----|
3
口口口口 |①---|
口口口口 |----|
口①①口 |----|
口口口口 |----|
4
口口口口 |①---|
口①①口 |----|
口口口口 |----|
口口口口 |----|
5
口①①口 |①---|
口口口口 |----|
口口口口 |----|
口口口口 |----|
6
口口口口 |①---|
口口口口 |----|
①②口口 |②---|
口口口口 |----|
7
口口口口 |①---|
口口口口 |----|
口口②① |②---|
口口口口 |----|
8
口口口口 |①---|
①②口口 |----|
口口口口 |②---|
口口口口 |----|
9
口口口口 |①---|
口口②① |----|
口口口口 |②---|
口口口口 |----|
10
口口口口 |①---|
口口口口 |----|
①②口口 |②---|
口口口口 |----|
11
口口口口 |①---|
口口口口 |----|
口口②① |②---|
口口口口 |----|
12
口口口口 |①---|
口①①口 |----|
口②②口 |②---|
口口口口 |----|
13
口口口口 |①---|
口口口口 |----|
口口口口 |----|
口①①口 |----|
14
口口口口 |①---|
口口口口 |----|
①②口口 |②---|
口口口口 |----|
15
口口口口 |①---|
口口口口 |----|
口口②① |②---|
口口口口 |----|
16
口口口口 |①---|
①②口口 |----|
口口口口 |②---|
口口口口 |----|
17
口口口口 |①---|
口口②① |----|
口口口口 |②---|
口口口口 |----|
18
口口①口 |①---|
口②口口 |----|
口口口口 |②---|
口口口口 |----|
19
口口口口 |①---|
口口口口 |----|
口口①口 |②---|
口②口口 |----|
20
口口口口 |①---|
口口口口 |----|
口①①口 |----|
口口口口 |----|
21
口口口口 |----|
口③②① |①---|
口口口口 |②---|
口口口口 |③---|
22
口口口口 |①---|
①口口口 |----|
口口口口 |----|
口口口口 |----|
23
口①①口 |①---|
口口口口 |----|
口口口口 |----|
口口口口 |----|
24
口口口口 |①---|
口口口① |----|
口口②口 |②---|
口口口口 |----|
25
口口口口 |①---|
②口口口 |----|
口①口口 |②---|
口口口口 |----|
26
口口口口 |①---|
口①①口 |----|
口口口口 |----|
口口口口 |----|
27
口口口口 |①---|
口口口口 |----|
口①①口 |----|
口口口口 |----|
28
口口口口 |①---|
口口②口 |----|
口口口① |②---|
口口口口 |----|
29
口口口口 |①---|
口①口口 |----|
②口口口 |②---|
口口口口 |----|
30
口口口口 |----|
口口口口 |----|
口口口口 |----|
口口口口 |----|
31
口口口口 |①---|
①口口② |----|
①口口② |②---|
口口口口 |----|
32
口口口口 |①---|
口②②口 |--②-|
口②②口 |----|
口①①口 |----|
33
口口口口 |①---|
口口口口 |②---|
①②③④ |③---|
口口口口 |④---|
34
口口口口 |①---|
口口口① |----|
口口口口 |----|
口口口口 |----|
35
②③④口 |①---|
口①①口 |②---|
口①①口 |③---|
口口口口 |④---|
36
口口口① |①---|
口口口口 |----|
口口口口 |----|
口口口口 |----|
37
口口口口 |①---|
口①①口 |----|
口口口口 |----|
口口口口 |----|
38
口口口口 |①---|
①口口① |----|
口口口口 |----|
口口口口 |----|
39
口口口口 |①---|
口口口口 |----|
口①①口 |----|
口口口口 |----|
40
口口口口 |①---|
口口口口 |----|
口口口口 |②---|
①②口口 |----|
41
口口口口 |①---|
口口口口 |----|
口口口口 |②---|
口口①② |----|
42
口口口口 |①---|
口口口口 |----|
口①①口 |----|
口口口口 |----|
43
口口口口 |①---|
口①①口 |----|
口口口口 |----|
口口口口 |----|
44
口口口口 |①---|
口口口口 |----|
①②口口 |②---|
口口口口 |----|
45
口口口口 |①---|
口口口口 |----|
口口②① |②---|
口口口口 |----|
46
口口口口 |①---|
①②口口 |----|
口口口口 |②---|
口口口口 |----|
47
口口口口 |①---|
口口②① |----|
口口口口 |②---|
口口口口 |----|
48
口口①口 |①---|
口②口口 |----|
口口口口 |②---|
口口口口 |----|
49
口口口口 |①---|
口口口口 |----|
口口①口 |②---|
口②口口 |----|
50
口口口口 |①---|
口口口口 |----|
口①①口 |----|
口口口口 |----|
51
口口口口 |①---|
口①①口 |----|
口口口口 |----|
口口口口 |----|
52
口口口② |①---|
口口口① |----|
口口口口 |②---|
口口口口 |----|
53
口②①口 |①---|
口口口口 |----|
口口口口 |②---|
口口口口 |----|
54
①口口口 |①---|
②口口口 |----|
口口口口 |②---|
口口口口 |----|
55
口口口口 |----|
口口口口 |----|
口口口口 |----|
口口口口 |----|
56
口口口口 |①---|
口口口口 |----|
①口口口 |②---|
②口口口 |----|
57
口口口口 |①---|
口口口口 |----|
口口口口 |②---|
口①②口 |----|
58
口口口口 |①---|
口口口口 |----|
口口口② |②---|
口口口① |----|
59
口口口口 |①---|
口②②口 |----|
口①①口 |②---|
口口口口 |----|
不确定度: 0