タッチ
ADVANCED
Level: 6
BPM: 161
Notes: 316
1
口口口口 |----|
口口口口 |----|
口口口口 |----|
①口口① |--①-|
2
⑤口口④ |--①-|
⑦③口⑥ |②-③-|
口①②口 |④-⑤-|
口口口口 |⑥-⑦-|
3
⑤口④⑥ |①-②-|
⑦口口口 |③-④-|
口②③口 |--⑤-|
①口口① |⑥-⑦-|
4
⑤口口⑥ |①-②-|
⑦③④⑧ |③-④-|
口口②口 |⑤-⑥-|
①口口① |⑦-⑧-|
5
⑦③③⑦ |--①-|
⑥②②⑥ |②-③-|
⑤①①⑤ |④-⑤-|
④口口④ |⑥-⑦-|
6
口口③口 |①-②-|
口⑥口口 |--③-|
口②⑤④ |--④-|
口①①口 |⑤-⑥-|
7
口④口口 |①-②-|
⑥⑦③⑤ |③-④-|
口②口口 |--⑤-|
①口口口 |⑥-⑦-|
8
口④口口 |①-②-|
口口口口 |③-④-|
②口口③
口①①口
口口口口
口口⑤口
口⑦口口 |--⑤-|
口⑥口口 |⑥-⑦-|
9
口口口口 |①-②-|
①口口② |③-④-|
③口口④ |----|
口口口口 |----|
10
口④口口 |①-②-|
⑤⑥③⑦ |③-④-|
口②口口 |--⑤-|
①口口① |⑥-⑦-|
11
口④口口 |①-②-|
⑤⑥③⑦ |③-④-|
口②口口 |--⑤-|
①口口① |⑥-⑦-|
12
⑥口口⑦ |①-②-|
口⑤⑤口 |③-④-|
口①②口 |⑤---|
口③④口 |⑥-⑦-|
13
①口口口 |----|
口口口② |----|
③口口口 |--①-|
口口口口 |②-③-|
14
口④口口 |①-②-|
口⑦③口 |③-④-|
口②⑥⑤ |--⑤-|
口①①口 |⑥-⑦-|
15
口④口口 |①-②-|
⑥⑦③⑤ |③-④-|
口②口口 |--⑤-|
①口口口 |⑥-⑦-|
16
口④口口 |①-②-|
口口口口 |③-④-|
②口口③
口①①口
口口口口
口口⑤口
口⑦口口 |--⑤-|
口⑥口口 |⑥-⑦-|
17
口口口口 |①-②-|
①口口② |③-④-|
③口口④ |----|
口口口口 |----|
18
①口口④ |①-②-|
②口口⑤ |③---|
口口口口 |④-⑤-|
③③⑥⑥ |⑥---|
19
口②③口 |①---|
口④⑤口 |----|
口①①口 |②-③-|
口口口口 |④-⑤-|
20
口口口口 |①---|
口口口口 |----|
口口口口 |----|
①口口① |----|
21
口口口② |----|
口口口口 |①---|
口口口口 |②---|
①口口③ |③---|
22
①①口口 |①---|
口口口口 |----|
口②③口 |----|
口口口口 |②-③-|
23
口口口② |----|
口口口口 |①---|
口口口口 |②---|
①口口③ |③---|
24
口①①口 |①---|
③口口③ |----|
②口口② |----|
口口口口 |②-③-|
25
口口口口 |----|
口口口口 |----|
①②口口 |----|
口口口口 |①-②-|
26
口口①③ |①---|
口口口口 |②-③-|
口口②口 |--④-|
口口口④ |----|
27
③①口口 |①---|
口口口口 |②-③-|
口②口口 |--④-|
④口口口 |----|
28
口①②口 |①-②-|
⑤③④⑥ |③-④-|
口口口口 |⑤-⑥-|
口⑦⑧口 |⑦-⑧-|
29
口①①口 |①---|
口口口口 |----|
口口口口 |----|
口口口口 |----|
30
口口口口 |--①-|
口口口口 |--②-|
③口口② |--③-|
①口口④ |--④-|
31
口①②口 |①---|
口①②口 |----|
口①②口 |②---|
口口口口 |----|
32
口④④口 |①-②-|
口④④口 |③-④-|
①口口② |----|
口③③口 |----|
33
口口口口 |①---|
口口口口 |②---|
③③④④ |③---|
①①②② |④---|
34
口①①口 |①---|
口口口口 |----|
口口口口 |----|
口口口口 |----|
35
③口口③ |①---|
④①①④ |②---|
口①①口 |③---|
②口口② |④---|
36
口口口口 |①---|
口②③口 |----|
口①①口 |----|
口口口口 |②-③-|
37
②口口② |----|
③口口③ |①---|
口口口口 |②---|
①口口① |③---|
38
口口口口 |①---|
口口①口 |----|
口①口口
口口口口
口口口口
口②③口
口口口口 |----|
口口口口 |②-③-|
39
口口口口 |----|
口口口口 |----|
口口口口 |----|
口①②口 |①-②-|
40
④口口④ |①-②-|
口②③口 |③-④-|
①口口①
口口口口
口口口口
口口口口
口⑤⑥⑦ |--⑤-|
口口口口 |⑥-⑦-|
41
口口口口 |①-②-|
③口口④ |③-④-|
口⑥⑥口 |⑤---|
①⑤⑤② |⑥---|
42
①口口① |①---|
口口口口 |----|
口口口口 |----|
口口口口 |----|
43
口口口口 |----|
口口口口 |----|
口口口口 |----|
口口口口 |----|
44
口口④口 |①-②-|
口②口口 |③-④-|
口③口口
口①①口
口口口口
口⑦口⑤
口口⑥口 |--⑤-|
口口口口 |⑥-⑦-|
45
口④口口 |①-②-|
⑥⑦③⑤ |③-④-|
口②口口 |--⑤-|
①口口口 |⑥-⑦-|
46
口④口口 |①-②-|
口口口口 |③-④-|
②口口③
口①①口
口口口口
口口⑤口
口⑦口口 |--⑤-|
口⑥口口 |⑥-⑦-|
47
口口口口 |①-②-|
①口口② |③-④-|
③口口④ |----|
口口口口 |----|
48
口口口口 |①---|
③④⑥⑤ |②---|
口口口口 |③-④-|
①①②② |⑤-⑥-|
49
口②③口 |①---|
口④⑤口 |----|
口①①口 |②-③-|
口口口口 |④-⑤-|
50
口口口口 |①---|
口口口口 |----|
口口口口 |----|
①口口① |----|
51
口口口口 |----|
口口口口 |----|
口口口口 |----|
口口口口 |----|
52
口口口口 |①---|
口口口口 |----|
口口口口 |----|
①①①① |----|
53
口口口口 |①---|
口口口口 |----|
①①①① |----|
口口口口 |----|
54
口口口口 |①---|
①①①① |----|
口口口口 |----|
口口口口 |----|
55
口口口口 |----|
口口口口 |----|
口口口口 |----|
口口口口 |----|
56
口口口口 |①---|
口口口口 |----|
口口口口 |----|
①①①① |----|
57
口口口口 |①---|
口口口口 |----|
①①①① |----|
口口口口 |----|
58
口口口口 |①---|
口口口口 |----|
口口口口 |----|
口①①口 |----|
59
口③③口 |--①-|
口②②口 |--②-|
口口口口 |③---|
①口口① |----|
不确定度: 0