タッチ

EXTREME

Level: 7
BPM: 161
Notes: 505

1
口口口口 |----|
口口口口 |----|
口口口口 |----|
①口口① |--①-|
2
⑤口口④ |--①-|
⑦③②⑥ |②-③-|
口①口口 |④-⑤-|
口口口口 |⑥-⑦-|
3
④口口④ |①-②-|
⑤⑦口⑥ |③-④-|
口③②口 |--⑤-|
①口口① |⑥-⑦-|
4
⑧⑥口⑦ |①-②-|
④口口⑤ |③-④-|
口②③口 |⑤-⑥-|
①口口① |⑦-⑧-|
5
⑦③③⑦ |--①-|
⑥②②⑥ |②-③-|
⑤①①⑤ |④-⑤-|
④口口④ |⑥-⑦-|
6
口口⑦口 |①-②-|
口⑤③口 |③-④-|
④①⑥④ |--⑤-|
口①②口 |⑥-⑦-|
7
口口⑦口 |①-②-|
①⑤口口 |③-④-|
④口⑥④ |--⑤-|
①②③口 |⑥-⑦-|
8
口口口口 |①-②-|
④口口④ |③-④-|
口①口口
①②③口

口口⑦口
口口口口
口⑥⑤口 |--⑤-|
口口口口 |⑥-⑦-|
9
口①口① |①-②-|
③②③② |③-④-|
口口口口 |----|
口④口④ |----|
10
口口⑦口 |①-②-|
④⑥口④ |③-④-|
①口⑤口 |--⑤-|
①②③口 |⑥-⑦-|
11
口口⑦口 |①-②-|
④⑥口④ |③-④-|
①口⑤口 |--⑤-|
①②③口 |⑥-⑦-|
12
④⑧⑧④ |①-②-|
③⑦⑦③ |③-④-|
②⑥⑥② |⑤-⑥-|
①⑤⑤① |⑦-⑧-|
13
②③③② |①---|
口④④口 |②---|
①⑤⑤① |--③-|
口口口口 |④-⑤-|
14
口口⑦口 |①-②-|
口⑤口口 |③-④-|
④口⑥④ |--⑤-|
①②③口 |⑥-⑦-|
15
口口⑦口 |①-②-|
①⑤口口 |③-④-|
④口⑥④ |--⑤-|
①②③口 |⑥-⑦-|
16
口口口口 |①-②-|
④口口④ |③-④-|
口①口口
①②③口

口口⑦口
口口口口
口⑥⑤口 |--⑤-|
口口口口 |⑥-⑦-|
17
口①口① |①-②-|
③②③② |③-④-|
口口口口 |----|
口④口④ |----|
18
口口口口 |①-②-|
②口口② |③---|
①口口①
口③③口

④口口④
口⑤⑤口
⑥⑥⑥⑥ |④-⑤-|
口口口口 |⑥---|
19
口口②口 |①---|
口④口③ |----|
口口⑤口 |②-③-|
①①①① |④-⑤-|
20
口④口口 |①---|
口③口口 |--②-|
①口口② |--③-|
①口口口 |④---|
21
口口口口 |①---|
口口口口 |②---|
口①①口
②口口②

③③口口
④④③③
口口④④ |③---|
口口口口 |④---|
22
口口①① |①---|
口口口口 |----|
口②③口 |----|
①①口口 |②-③-|
23
②③③① |----|
口口口① |①---|
①口口口 |②---|
①③③② |③---|
24
口口口口 |①---|
①②③① |----|
①②③① |----|
口口口口 |②-③-|
25
口口口口 |----|
口口②口 |----|
口口口口 |----|
①口口口 |①-②-|
26
①③①③ |①---|
口口口口 |②-③-|
口口口口 |--④-|
④②④② |----|
27
①③①③ |①---|
①③①③ |②-③-|
口口口口 |--④-|
④②④② |----|
28
口⑤④口 |①-②-|
口③⑥口 |③-④-|
口⑦②口 |⑤-⑥-|
口①⑧口 |⑦-⑧-|
29
①口口① |①---|
①口口① |--②-|
②口口③ |----|
口口口口 |③---|
30
口口口口 |①-②-|
口④①④ |③-④-|
口③口口
②②口口

口口⑧⑧
口口⑦口
口口⑥⑥ |⑤-⑥-|
口口⑤口 |⑦-⑧-|
31
①口口口 |①---|
①口口口 |②---|
①口口口
②②口口

④④口口
口口口③
口口口③ |③---|
口口口③ |④---|
32
口口①口 |①-②-|
口④④口 |③-④-|
②④④口
口④④③

口⑤⑤口
口口口口
口口口口 |----|
口口口口 |⑤---|
33
①③④② |①---|
口口口口 |②---|
②口口① |③---|
④口口③ |④---|
34
口口口口 |①---|
①口口① |--②-|
②①①③ |----|
口口口口 |③---|
35
口①①① |①---|
口口①口 |②---|
口口①口
②口口②

口④④口
③口口③
口口口口 |③---|
口口口口 |④---|
36
口口口口 |①---|
口口口口 |----|
①①①①
口口口口

口口口口
口口口口
②口口③ |----|
口口口口 |②-③-|
37
②口口② |----|
③口口③ |①---|
口口口口 |②---|
①口口① |③---|
38
口口口口 |①---|
口①①口 |----|
口①①口
口口口口

口口口口
②口口③
口②③口 |----|
口口口口 |②-③-|
39
口口口口 |----|
口口口口 |----|
口口②口 |----|
口①口口 |①-②-|
40
⑦④④⑦ |①-②-|
⑤口③⑤ |③-④-|
⑥②口⑥ |--⑤-|
①口口① |⑥-⑦-|
41
口口口口 |①-②-|
口③④口 |③-④-|
口②口口
口①口口

口口口口
⑥口口⑥
⑤口口⑤ |⑤---|
⑤⑥⑥⑤ |⑥---|
42
①①①① |①---|
口口口口 |--②-|
②口口③ |----|
口口口口 |③---|
43
口口口口 |①---|
①③③② |--②-|
口①②口 |----|
口口口口 |③---|
44
口口⑦口 |①-②-|
口⑤口口 |③-④-|
④口⑥④ |--⑤-|
①②③口 |⑥-⑦-|
45
口口⑦口 |①-②-|
①⑤口口 |③-④-|
④口⑥④ |--⑤-|
①②③口 |⑥-⑦-|
46
口口口口 |①-②-|
④口口④ |③-④-|
口①口口
①②③口

口口⑦口
口口口口
口⑥⑤口 |--⑤-|
口口口口 |⑥-⑦-|
47
口①口① |①-②-|
③②③② |③-④-|
口口口口 |----|
口④口④ |----|
48
口口口口 |①---|
口口口口 |②---|
①②②①
口口口口

③口口③
⑥④④⑥
⑤口口⑤ |③-④-|
口口口口 |⑤-⑥-|
49
口口口口 |①---|
口口口口 |----|
口口口口
①①①①

口口②口
口③口口
口④口口 |②-③-|
口⑤口口 |④-⑤-|
50
口口口③ |①---|
口口口口 |--②-|
口口口② |----|
①口口① |③---|
51
口口口口 |①---|
③口口口 |--②-|
②口口口 |----|
口①口口 |③---|
52
①①①口 |①---|
口⑥③口 |②---|
④⑥口⑤ |③-④-|
②②②口 |⑤-⑥-|
53
②②②口 |--①-|
口口④③ |--②-|
口⑤口口 |③-④-|
①①①口 |⑤---|
54
④④④④ |①-②-|
口口口口 |③-④-|
①口口①
②③③②

口口口口
口口口口
⑤口口口 |----|
口口口口 |⑤---|
55
口口口口 |----|
口口口② |①-②-|
③口口① |----|
口口口口 |③---|
56
口①①① |①---|
口口口口 |②---|
口口口口
口②②②

口⑥⑥⑥
口④口③
口口⑤口 |③-④-|
口口口口 |⑤-⑥-|
57
口口口口 |--①-|
②口口③ |--②-|
④口口⑤ |③-④-|
口①①① |⑤---|
58
②④⑤② |①---|
口①①口 |②---|
口①①口 |③-④-|
③口口③ |⑤---|
59
②口口② |①-②-|
①口口① |--③-|
④④④④ |④---|
③③③③ |----|


不确定度: 0

最終更新:2012年11月11日 23:18