SEED
DJ YOSHITAKA

EXTREME

Level: 9
BPM: 152
Notes: 771

1
口口口口 |----|
口口口口 |----|
口口口口 |----|
口口口口 |----|
2
口⑦③口 |①-②③|
⑧口口④ |--④⑤|
口②⑥口 |--⑥⑦|
⑨①①⑤ |--⑧⑨|
3
口⑥②口 |--①②|
口⑦③口 |--③④|
口①⑤口 |--⑤⑥|
⑧口口④ |--⑦⑧|
4
③⑥②⑦ |--①②|
口口口口 |--③④|
口①⑤口 |--⑤⑥|
⑧口口④ |--⑦⑧|
5
③⑥②口 |--①②|
口⑦口口 |--③④|
口①⑤口 |--⑤⑥|
⑧口口④ |--⑦⑧|
6
口⑧④口 |①-②③|
⑨口口⑤ |--④⑤|
②⑤⑨⑥ |--⑥⑦|
⑦①①③ |--⑧⑨|
7
口⑦③口 |--①②|
⑧口口④ |--③④|
①④⑧⑤ |--⑤⑥|
⑥口口② |--⑦⑧|
8
口⑦③口 |--①②|
⑧口口④ |--③④|
①④口⑤ |--⑤⑥|
⑥口口② |--⑦⑧|
9
口口口口 |①②③④|
口③②口 |-⑤⑥⑦|
⑦④①口
口⑤⑥口

⑨口口⑧
⑪⑭⑬⑩
口⑮⑫口 |⑧⑨⑩⑪|
口口口口 |⑫⑬⑭⑮|
10
口④④口 |--①-|
口口口口 |-②③④|
③口口口
①口②①

⑦口口⑦
口⑤⑤口
口口口口 |--⑤-|
⑥口口⑥ |--⑥⑦|
11
⑥口口⑥ |--①-|
④⑤⑤④ |-②③④|
①③口① |--⑤-|
⑦口②⑦ |--⑥⑦|
12
⑦④④⑦ |--①-|
①⑤⑤① |-②③④|
口口③口 |--⑤-|
⑥②口⑥ |--⑥⑦|
13
口口口口 |-①②③|
⑤口口④ |--④⑤|
③①①③
口②②口

⑨⑦⑥⑧
口⑫⑪口
口⑬⑩口 |⑥⑦⑧⑨|
口口口口 |⑩⑪⑫⑬|
14
口④④口 |--①-|
口口口口 |-②③④|
口口口③
①②口①

⑦口口⑦
口⑤⑤口
口口口口 |--⑤-|
⑥口口⑥ |--⑥⑦|
15
⑥口口⑥ |--①-|
④⑤⑤④ |-②③④|
①口③① |--⑤-|
⑦②口⑦ |--⑥⑦|
16
⑦④④⑦ |--①-|
①⑤⑤① |-②③④|
口③口口 |--⑤-|
⑥口②⑥ |--⑥⑦|
17
口⑨⑪口 |-①②③|
⑥⑩⑫③ |-④⑤⑥|
⑬⑤②⑦ |⑦⑧⑨⑩|
⑭④①⑧ |⑪⑫⑬⑭|
18
④⑪口⑥ |①-②-|
②口⑧口 |③④⑤⑥|
⑩②⑤⑧ |⑦-⑧-|
⑨⑦①③ |⑨-⑩⑪|
19
④⑩口⑥ |①-②-|
②口⑧口 |③④⑤⑥|
⑪②⑤⑧ |⑦-⑧-|
⑨⑦①③ |⑨-⑩⑪|
20
④⑪口⑥ |①-②-|
②口⑧口 |③④⑤⑥|
⑩②⑤⑧ |⑦-⑧-|
⑨⑦①③ |⑨-⑩⑪|
21
⑬⑪⑨⑦ |-①②③|
④⑤⑥口 |-④⑤⑥|
⑭⑫⑩⑧ |⑦⑧⑨⑩|
口③②① |⑪⑫⑬⑭|
22
⑧口⑩⑪ |①-②-|
⑥⑤④② |③④⑤⑥|
⑨⑨⑦⑦ |⑦-⑧-|
③③①① |⑨-⑩⑪|
23
口口口口 |①-②-|
④⑤⑥② |③④⑤⑥|
口口口口
①①③③

⑧口⑩口
口口口口
⑨口⑦⑦ |⑦-⑧-|
口⑪口口 |⑨-⑩⑪|
24
口口口口 |①-②-|
口口口口 |-③--|
口②③口
口口①①

④⑥⑧⑨
口口口口
口口口口 |④⑤⑥⑦|
⑤⑦⑧⑩ |⑧-⑨⑩|
25
口⑦⑨口 |①②③④|
①②③④ |--⑤⑥|
⑤⑧⑩⑥ |⑦⑧⑨⑩|
口⑪⑪口 |⑪---|
26
①口口① |①---|
①口口① |----|
口口口口
口口口口

口口②口
②口②口
口③口③ |----|
口③口口 |②-③-|
27
口①②口 |----|
②口口① |①---|
③口口③ |②---|
①口口② |③---|
28
口口口② |①---|
口口②口 |--②-|
口②口口
②①①口

口口口口
口口口口
③口口口 |----|
口③口口 |--③-|
29
口③①③ |①-②-|
②②④① |--③-|
口③②② |----|
④口④口 |④---|
30
②口①口 |①---|
口②口① |--②-|
①口②口
口①口②

口口口口
口口口口
口口口③ |----|
③③③口 |③---|
31
口③③③ |①---|
③口②② |--②-|
①①口口 |----|
口口口口 |③---|
32
口②②口 |①---|
口③③口 |----|
①口口① |----|
口①①口 |②-③-|
33
口口口口 |--①-|
口口口口 |--②-|
口①①口 |--③-|
③②②③ |----|
34
口口①③ |----|
①②口口 |①---|
口口④② |②---|
口④口④ |③-④-|
35
③①口口 |--①-|
口口②① |--②-|
②④口口 |--③-|
④口④口 |--④-|
36
③①①③ |----|
①②②口 |①---|
④口④② |②---|
口④口④ |③-④-|
37
口口口口 |--①-|
①②②① |--②-|
口口口口
口口口口

④口口④
④口口④
口口口口 |--③-|
③口口③ |--④-|
38
③①②④ |----|
口口口口 |①---|
②口口① |②---|
④口口③ |③-④-|
39
口①④口 |--①-|
④口口① |--②-|
②口口③ |--③-|
口③②口 |--④-|
40
③口口④ |----|
口②①口 |①---|
①口口② |②---|
④②①③ |③-④-|
41
口④⑥口 |①-②-|
⑥⑤③④ |③-④-|
②①⑦⑧ |⑤-⑥-|
口⑧②口 |⑦-⑧-|
42
口口口② |①---|
口口①口 |②---|
口①口口
口口口口

口口口口
口⑤④⑤
口④⑤④ |③---|
口口③口 |④-⑤-|
43
③①口② |--①-|
口口口④ |--②-|
口口口③ |--③-|
②④口① |--④-|
44
口口①① |----|
②④③④ |①---|
①③④③ |②---|
口口②② |③-④-|
45
①口口口 |--①-|
口口口口 |--②-|
①口口口
②②口口

④④口口
口口口口
口口口口 |--③-|
口口③③ |--④-|
46
⑦⑦⑤⑤ |①-②-|
④①③① |③-④-|
②③①③ |⑤-⑥-|
⑧⑧⑥⑥ |⑦-⑧-|
47
⑥⑥⑤⑤ |①-②-|
③②④② |③-④-|
①④②④ |⑤-⑥-|
⑧⑧⑦⑦ |⑦-⑧-|
48
⑦⑦⑤⑤ |①-②-|
④①③① |③-④-|
②③①③ |⑤-⑥-|
⑧⑧⑥⑥ |⑦-⑧-|
49
⑥⑥⑤⑤ |①-②-|
③②④② |③-④-|
①④②④ |⑤-⑥-|
⑧⑧⑦⑦ |⑦-⑧-|
50
口口口口 |①---|
口①口① |----|
①口①口 |----|
口口口口 |----|
51
口口③⑤ |----|
④⑤口① |--①-|
①②口口 |②-③-|
③口④② |④-⑤-|
52
①④④⑧ |①--②|
⑥⑧⑦② |③-④-|
⑦⑤③① |⑤⑥--|
⑥口口② |⑦-⑧-|
53
①④④⑧ |①--②|
⑥⑧⑦② |③-④-|
⑦⑤③① |⑤⑥--|
⑥口口② |⑦-⑧-|
54
①口④口 |①--②|
③口口口 |③-④-|
口④口①
口②口②

口⑥口⑥
口口⑦⑦
⑤口口口 |⑤⑥--|
⑦⑧⑧口 |⑦-⑧-|
55
②④②口 |①--②|
①口口口 |③-④-|
口口④③
口口口①

⑧口口⑦
⑧口口⑤
⑦⑦口口 |⑤⑥--|
⑥口⑥口 |⑦-⑧-|
56
口④④⑧ |①--②|
⑥⑧⑦② |③-④-|
⑦⑤③① |⑤⑥--|
⑥口口② |⑦-⑧-|
57
口④④⑧ |①--②|
⑥⑧⑦② |③-④-|
⑦⑤③① |⑤⑥--|
⑥口口② |⑦-⑧-|
58
①⑥⑥口 |①--②|
④⑦⑦② |③-④-|
口⑤③① |⑤⑥--|
⑧④②⑧ |⑦-⑧-|
59
①口口口 |①--②|
④口口② |③-④-|
口口③①
口④②口

⑦⑧口口
口⑥⑥⑧
口⑤口⑦ |⑤⑥--|
口口口口 |⑦-⑧-|
60
口口③① |①②③④|
⑤⑥口口 |⑤-⑥-|
⑤口口口
口⑥④②

口口⑩⑨
口口⑧口
口口口⑦ |⑦⑧--|
口口口口 |⑨-⑩-|
61
①③口口 |①②③④|
口口⑥⑤ |⑤-⑥-|
口口口⑤
②④⑥口

⑨口口⑩
口⑧口口
⑦口口口 |⑦⑧--|
口口口口 |⑨-⑩-|
62
口④口口 |①--②|
口④②口 |③-④-|
口口口③
①②口①

口口口⑦
口口口⑤
⑥⑦⑥口 |⑤⑥--|
⑧口⑧口 |⑦-⑧-|
63
①口①口 |①--②|
③⑥②④ |③-④-|
⑤⑧④② |⑤⑥--|
⑦口口口 |⑦-⑧-|
64
口口②① |①-②-|
口④②③ |③-④-|
口口③①
口④②①

口口口⑦
⑤口口口
口口口⑥ |-⑤--|
口口口口 |⑥-⑦-|
65
①②口口 |①-②-|
③②④口 |③-④-|
①③口口
①②④口

口口口口
口⑦口⑤
口口⑥口 |-⑤--|
口口口口 |⑥-⑦-|
66
①⑤③① |①--②|
②⑥口④ |③-④-|
口⑦⑧⑥ |⑤⑥--|
⑧②④⑦ |⑦-⑧-|
67
①⑤③① |①--②|
②⑥口④ |③-④-|
口⑦⑧⑥ |⑤⑥--|
⑧②④⑦ |⑦-⑧-|
68
①口①口 |①---|
①口①口 |----|
口口口口 |----|
口口口口 |----|


不确定度: 0

タグ:

+ タグ編集
  • タグ:

このサイトはreCAPTCHAによって保護されており、Googleの プライバシーポリシー利用規約 が適用されます。

最終更新:2012年12月27日 16:41