SUPER∞STREAM

BASIC

Level: 3
BPM: 180
Notes: 203

1
口口口口 |----|
口口口口 |----|
口口口口 |----|
口口口口 |----|
2
口口口口 |----|
口口口口 |----|
口口口口 |----|
口口口口 |----|
3
口口口口 |①---|
①②口口 |----|
口口口口 |②---|
口口口口 |----|
4
口口口口 |①---|
口口①口 |----|
口口口口 |②---|
口口②口 |----|
5
口口口口 |①---|
口口口口 |----|
口口②① |②---|
口口口口 |----|
6
口②口口 |①---|
口口口口 |----|
口①口口 |②---|
口口口口 |----|
7
口口口口 |①---|
口口口口 |----|
口②②口 |②---|
口①①口 |----|
8
口口口口 |①---|
①②口③ |②---|
口口口口 |③---|
口口口口 |----|
9
口①①口 |①---|
口口口口 |----|
口口口口 |----|
口口口口 |----|
10
口口口口 |①---|
口口口口 |----|
①③②口 |②---|
口口口口 |③---|
11
口口口口 |①---|
口②③① |----|
口口口口 |②---|
口口口口 |③---|
12
口③口② |①---|
①口口口 |----|
口口口口 |②---|
口口口口 |③---|
13
口口①口 |①---|
口②口口 |②---|
口口③口 |③---|
口④口口 |④---|
14
口口口口 |①---|
口口③④ |②---|
①②口口 |③---|
口口口口 |④---|
15
①口口① |①---|
口②口口 |----|
口口口口 |②---|
口口口口 |----|
16
口口口口 |①---|
口口①口 |----|
口口口口 |----|
口口口口 |----|
17
口②②口 |①---|
口口口口 |----|
口①①口 |②---|
口口口口 |----|
18
口口口口 |----|
①②口口 |①---|
口口口口 |②---|
口口口口 |----|
19
口口口口 |①---|
口口口口 |----|
口②②口 |②---|
口①①口 |----|
20
口口口口 |①---|
口①①口 |----|
口口口口 |----|
口口口口 |----|
21
口口口口 |①---|
口口口口 |----|
口②口口 |②---|
口口①口 |----|
22
口口口口 |①---|
口口①② |----|
口口口口 |----|
口口口口 |②---|
23
口口口口 |①---|
口②①口 |②---|
③④口口 |③---|
口口口口 |④---|
24
口②②口 |①---|
口口口口 |----|
口口①口 |②---|
口口口口 |----|
25
口口口口 |①---|
口口口口 |----|
口①①口 |②---|
口②②口 |----|
26
口口口口 |----|
口口②① |①---|
口口口口 |②---|
口口口口 |----|
27
口口口口 |①---|
口口口口 |----|
口②②口 |②---|
口①①口 |----|
28
口口口口 |①---|
口①①口 |----|
口口口口 |----|
口口口口 |----|
29
①口口① |①---|
口口②口 |----|
口口口口 |②---|
口口口口 |----|
30
口口口口 |①---|
口①口口 |----|
口②口口 |②---|
口口口口 |----|
31
口口④口 |①---|
口口③口 |②---|
口口②口 |③---|
口口①口 |④---|
32
口口口口 |①---|
口①口口 |----|
口②口口 |②---|
口口口口 |----|
33
口口口口 |----|
口口口口 |----|
口口口口 |①---|
口口①口 |----|
34
口口口口 |①---|
口口①口 |----|
口口口口 |②---|
口②口口 |----|
35
口口②口 |①---|
口①③口 |②---|
口口④口 |③---|
口口口口 |④---|
36
口口口口 |①---|
口口口口 |----|
口②口口 |②---|
口口①口 |----|
37
口②口口 |①---|
口①口口 |----|
口口口口 |②---|
口口口口 |----|
38
口口口口 |①---|
口口口口 |----|
②①①② |②---|
口口口口 |----|
39
口口口口 |①---|
③口口③ |----|
②①①② |②---|
口口口口 |③---|
40
①口口① |①---|
口口口口 |----|
口口口口 |----|
口口口口 |----|
41
口②口口 |----|
口口①口 |----|
口口口口 |①---|
口口口口 |②---|
42
①口口① |①---|
口口口口 |----|
口口口口 |----|
口口口口 |----|
43
口口口口 |----|
口口口口 |----|
口口口口 |----|
口口口口 |----|
44
口口口③ |①---|
口口②口 |----|
口口口口 |②---|
口①口口 |③---|
45
口①口口 |----|
口②口口 |①---|
口③口口 |②---|
口口口口 |③---|
46
口口口口 |①---|
口口口口 |----|
口口口口 |②---|
口①②口 |----|
47
口口口口 |①---|
②口口② |----|
①口口① |②---|
口口口口 |----|
48
①口②① |①---|
口口③口 |----|
口口口口 |②---|
口口口口 |③---|
49
口口口口 |①---|
口口口口 |②---|
口口①口 |③---|
口③②口 |----|
50
口口口口 |①---|
②口口② |----|
①口口① |②---|
口口口口 |----|
51
①②③口 |①---|
口口口口 |②---|
口口口口 |③---|
口口口口 |----|
52
口口口③ |①---|
口口②口 |----|
口口口口 |②---|
口①口口 |③---|
53
口①口口 |----|
口②口口 |①---|
口③口口 |②---|
口口口口 |③---|
54
口口口口 |①---|
口口口口 |----|
口口口口 |②---|
口①②口 |----|
55
口口口口 |①---|
①口口① |----|
②口口② |②---|
口口口口 |----|
56
口口②口 |①---|
口口③口 |----|
口口口口 |②---|
①口口① |③---|
57
口口口口 |①---|
口口口口 |②---|
口口①口 |③---|
口③②口 |----|
58
口口口口 |①---|
口口口口 |----|
①口口① |----|
口口口口 |----|
59
口③②① |①---|
口口口口 |②---|
口口口口 |③---|
口口口口 |----|
60
口口口口 |①---|
①②口口 |----|
口口口口 |②---|
口口口口 |----|
61
口口口口 |①---|
口口①口 |②---|
口口②口 |③---|
口口③口 |----|
62
口口口口 |①---|
口口口口 |----|
口口②① |②---|
口口口口 |----|
63
口③口口 |①---|
口②口口 |②---|
口①口口 |③---|
口口口口 |----|
64
口口口口 |①---|
口口口口 |----|
口②②口 |②---|
口①①口 |----|
65
口口口口 |①---|
①②口③ |②---|
口口口口 |③---|
口口口口 |----|
66
口①①口 |①---|
口口口口 |----|
口口口口 |----|
口口口口 |----|
67
口口口口 |①---|
口口口口 |----|
①③②口 |②---|
口口口口 |③---|
68
口口口口 |①---|
口②③① |----|
口口口口 |②---|
口口口口 |③---|
69
口③口② |①---|
①口口口 |----|
口口口口 |②---|
口口口口 |③---|
70
口口①口 |①---|
口②口口 |②---|
口口③口 |③---|
口④口口 |④---|
71
口口口口 |①---|
口口③④ |②---|
①②口口 |③---|
口口口口 |④---|
72
①口口① |①---|
口②口口 |----|
口口口口 |②---|
口口口口 |----|
73
口口口口 |①---|
口口①口 |----|
口口口口 |----|
口口口口 |----|
74
①口口① |①---|
口口口口 |----|
口口口口 |----|
口口口口 |----|


不确定度: 0

最終更新:2012年11月11日 23:17