SUPER∞STREAM

EXTREME

Level: 8
BPM: 180
Notes: 507

1
口口口口 |----|
口口口口 |----|
口口口口 |----|
口口口口 |----|
2
口口口口 |①---|
①①①① |----|
口口口口 |--②③|
口④③② |④---|
3
①③①③ |①---|
口口口口 |②---|
④②④② |③---|
口口口口 |④---|
4
口口①④ |①---|
口口口口 |②-③-|
口②口口 |----|
③口口③ |--④-|
5
口口口口 |--①-|
①⑤⑤口 |②-③-|
③⑤④② |④---|
口④④口 |⑤---|
6
口口口口 |①-②-|
口口口④ |③-④-|
③口口② |----|
①口口口 |----|
7
①①①① |①---|
④口口口 |②---|
②②②② |③---|
③③③③ |--④-|
8
口口①口 |--①-|
口③口② |②---|
④口口④ |③---|
⑤⑤⑤⑤ |④-⑤-|
9
口口口口 |----|
口口口口 |----|
口口口口 |----|
口口口口 |----|
10
①⑤①⑤ |①---|
口②口② |②---|
口⑤①口 |③-④-|
④②口③ |--⑤-|
11
④口④口 |----|
①口①口 |①---|
口口④口 |②-③-|
②口①③ |--④-|
12
口④口④ |----|
口①口① |①---|
口④口口 |②-③-|
③①口② |--④-|
13
④口③⑤ |--①-|
①②①② |--②-|
③口③口 |--③-|
口②①口 |--④⑤|
14
⑤口④口 |①---|
①②①② |②---|
④口④③ |③-④-|
①口③② |--⑤-|
15
口口口口 |----|
②①②① |----|
③③③③ |①-②-|
口①②口 |--③-|
16
口口口口 |----|
口口口④ |----|
口④口口 |①-②-|
①②③口 |③-④-|
17
③口口① |--①-|
②①③口 |--②-|
④口②④ |③---|
口口口口 |④---|
18
口口①口 |----|
口口②口 |①-②-|
口口③口 |③-④-|
口⑤④口 |--⑤-|
19
口⑤④⑤ |①---|
②口③口 |②---|
口①口① |③---|
口口口口 |④-⑤-|
20
口口口口 |----|
口口口口 |----|
②口口口 |----|
①口口口 |①-②-|
21
④口⑤③ |①-②-|
口口口② |③-④-|
口⑥⑥① |⑤---|
口口口口 |⑥---|
22
口口口口 |①---|
口口口口 |----|
口口口口 |----|
②①①口 |②---|
23
口⑤口口 |①---|
口②④③ |②---|
①①口口 |③-④-|
口口口口 |⑤---|
24
①口口② |①---|
口口口口 |--②-|
④口⑤口 |③---|
口③③口 |--④⑤|
25
④口口④ |①-②-|
口②口① |③-④-|
口口口口 |----|
③口口③ |----|
26
口口口口 |----|
①③①② |①---|
④口口口 |②-③-|
口口口口 |--④-|
27
口口口口 |①---|
口口④口 |②---|
口②①② |③---|
口⑤③⑤ |④-⑤-|
28
①①口口 |----|
口口②② |----|
③③口口 |--①-|
口口口口 |②-③-|
29
口口口口 |----|
口口③口 |----|
口口②口 |①-②-|
口口①口 |③---|
30
口①②① |①---|
口③④③ |②---|
口口口口 |③---|
⑤口⑤口 |④-⑤-|
31
口口口口 |----|
口口口口 |①---|
②③②口 |②---|
口①口口 |③---|
32
③③③③ |①---|
①②②① |--②-|
口口口口 |③---|
口口口口 |----|
33
口口口③ |----|
口口口③ |----|
②口口口 |①-②-|
口口口① |--③-|
34
③口口口 |----|
③口口口 |----|
口口口② |①-②-|
①口口口 |--③-|
35
口①口口 |----|
口①②口 |①---|
口口③口 |②---|
口口口口 |③---|
36
口口口口 |①---|
口口③口 |----|
口口口① |②---|
②口口① |③---|
37
①口口① |①-②-|
③口口③ |③-④-|
口②②口 |----|
口④④口 |----|
38
口口口口 |①-②-|
口④口口 |③-④-|
③②口③
①口口①

口⑥口口
⑤口口⑤
口口口口 |⑤-⑥-|
⑦口口⑦ |--⑦-|
39
⑥⑤口⑥ |--①-|
④③口④ |②-③-|
②①口② |④-⑤-|
⑦口口⑦ |⑥-⑦-|
40
口口口口 |----|
口口口口 |----|
口口口口 |----|
口口口口 |----|
41
⑤⑤⑤⑤ |----|
口④③口 |--①-|
③①②④ |②-③-|
②口口① |④-⑤-|
42
口口口口 |----|
口口口口 |----|
口口口口 |----|
口口口口 |----|
43
④④④④ |①-②-|
①口口① |③-④-|
②②②② |----|
③口口③ |----|
44
⑤③⑤③ |①---|
②口口④ |②-③-|
口口口口 |--④-|
口①①口 |⑤---|
45
口口口口 |----|
口①①口 |①---|
口②②口 |②---|
口③③口 |③---|
46
②口口③ |①---|
②口口③ |--②-|
口口口口 |③---|
①口口① |----|
47
⑤口口⑤ |①-②-|
⑥①③⑥ |③-④-|
②④②④ |--⑤-|
⑦①③⑦ |⑥-⑦-|
48
口①②① |----|
口口口口 |----|
口口口口 |①---|
口口口口 |②---|
49
口口口口 |①---|
①②①口 |②-③-|
③口③⑤ |----|
口口口④ |④-⑤-|
50
②②口口 |①---|
口口口① |----|
口口③口 |②---|
③口口口 |--③-|
51
④④③② |①--②|
口②口口 |--③-|
口①口口 |④---|
口口口口 |----|
52
⑤③⑤③ |①---|
②口口④ |②-③-|
口口口口 |--④-|
④①①② |⑤---|
53
口口口口 |----|
口①①口 |①---|
口②②口 |②---|
口③③口 |③---|
54
②口口③ |①---|
②口口③ |--②-|
口口口口 |③---|
①口口① |----|
55
⑤口口⑤ |①-②-|
⑥①③⑥ |③-④-|
②④②④ |--⑤-|
⑦①③⑦ |⑥-⑦-|
56
口①②① |----|
口口口口 |----|
口口口口 |①---|
口口口口 |②---|
57
口口口口 |①---|
①②①口 |②---|
③口③⑤ |③---|
口口口④ |④-⑤-|
58
口口口口 |----|
口口口口 |----|
口口②口 |----|
②口口① |①-②-|
59
④④③② |①--②|
口②口口 |--③-|
口①口口 |④---|
口口口口 |----|
60
口③口③ |①---|
②口②口 |②---|
④口④口 |③---|
口①口① |④---|
61
口口①④ |①---|
口口口口 |②-③-|
口②口口 |----|
③口口③ |--④-|
62
口口口口 |--①-|
①⑤⑤口 |②-③-|
③⑤④② |④---|
口④④口 |⑤---|
63
口口口口 |①-②-|
口口口④ |③-④-|
③口口② |----|
①口口口 |----|
64
①①①① |①---|
④口口口 |②---|
②②②② |③---|
③③③③ |--④-|
65
口口①口 |--①-|
口④口② |②-③-|
⑤口③⑤ |④---|
⑥⑥⑥⑥ |⑤-⑥-|
66
口口口口 |----|
口口口口 |----|
口口口口 |----|
口口口口 |----|
67
①⑤①⑤ |①---|
口②口② |②---|
口⑤①口 |③-④-|
④②口③ |--⑤-|
68
④口④口 |----|
①口①口 |①---|
口口④口 |②-③-|
②口①③ |--④-|
69
口④口④ |----|
口①口① |①---|
口④口口 |②-③-|
③①口② |--④-|
70
④口③⑤ |--①-|
①②①② |--②-|
③口③口 |--③-|
口②①口 |--④⑤|
71
⑤口④口 |①---|
①②①② |②---|
④口④③ |③-④-|
①口③② |--⑤-|
72
口口口① |--①-|
④③④③ |②---|
口口口口 |③-④-|
②③④② |----|
73
③口口③ |①---|
口②②口 |----|
①①①① |----|
口口口口 |②-③-|


不确定度: 0

最終更新:2012年11月11日 23:17