シャカビーチ~Laka Laka la~

BASIC

Level: 2
BPM: 200
Notes: 172

1
口口口口 |----|
口口口口 |----|
口口口口 |----|
口口口口 |----|
2
口口口口 |----|
口口口口 |----|
口口口口 |----|
口口口口 |----|
3
口口口口 |----|
口口口口 |----|
口口口口 |----|
口口口口 |----|
4
口口口口 |----|
口口口口 |----|
口口口口 |----|
口口口口 |----|
5
口口口口 |----|
口口口口 |----|
口口口口 |----|
口口口口 |----|
6
口口口口 |①---|
口口口口 |----|
口②②口 |②---|
口①①口 |----|
7
口①①口 |①---|
口②②口 |----|
口口口口 |②---|
口口口口 |----|
8
口口口口 |①---|
口口口口 |----|
口②②口 |②---|
口①①口 |----|
9
口口口口 |①---|
口①①口 |----|
口口口口 |----|
口口口口 |----|
10
口①①口 |①---|
口口口口 |----|
口口口口 |----|
口口口口 |----|
11
口口口口 |①---|
口口口口 |----|
①口②口 |②---|
口口口口 |----|
12
口口口口 |①---|
口①口② |----|
口口口口 |②---|
口口口口 |----|
13
口口口口 |①---|
①口②口 |----|
口口口口 |②---|
口口口口 |----|
14
口①①口 |①---|
口口口口 |----|
口口口口 |----|
口口口口 |----|
15
口口口口 |①---|
口②口① |----|
口口口口 |②---|
口口口口 |----|
16
口口口口 |①---|
口口口口 |----|
②口①口 |②---|
口口口口 |----|
17
口口口口 |①---|
口①①口 |----|
口口口口 |----|
口口口口 |----|
18
口口口口 |①---|
口口口口 |----|
口口口口 |----|
口①①口 |----|
19
口口口口 |①---|
口口口口 |----|
①口②口 |②---|
口口口口 |----|
20
口口口口 |①---|
口①口② |----|
口口口口 |②---|
口口口口 |----|
21
口口口口 |①---|
①口②口 |----|
口口口口 |②---|
口口口口 |----|
22
口①①口 |①---|
口口口口 |----|
口口口口 |----|
口口口口 |----|
23
口口口口 |①---|
口②①口 |----|
口口口口 |②---|
口口口口 |----|
24
口口口口 |①---|
口口口口 |----|
口①①口 |----|
口口口口 |----|
25
口口口口 |①---|
口②①口 |----|
口口口口 |②---|
口口口口 |----|
26
①口口① |①---|
口口口口 |----|
口口口口 |----|
口口口口 |----|
27
口口口口 |①---|
口①①口 |----|
口口口口 |----|
口口口口 |----|
28
口口口口 |①---|
口口口口 |----|
①口口① |----|
口口口口 |----|
29
口口口口 |①---|
口口口口 |----|
口口口口 |----|
口①①口 |----|
30
口口口口 |①---|
口口②口 |----|
口①口口 |②---|
口口口口 |----|
31
口口口口 |①---|
口①口口 |----|
口口②口 |②---|
口口口口 |----|
32
口口口口 |①---|
①口口① |----|
口口口口 |----|
口口口口 |----|
33
口口口口 |----|
口口口口 |----|
口口口口 |----|
口口口口 |----|
34
口口口口 |①---|
口口口口 |----|
①口口① |----|
口口口口 |----|
35
口口口口 |①---|
口口口口 |----|
口口口口 |----|
①口口① |----|
36
口口口口 |①---|
口口口口 |----|
口①①口 |----|
口口口口 |----|
37
口口口口 |①---|
口①②口 |----|
口口口口 |②---|
口口口口 |----|
38
口口口口 |①---|
①口口① |----|
口口口口 |----|
口口口口 |----|
39
口口口口 |①---|
口口口口 |----|
口①②口 |②---|
口口口口 |----|
40
口口口口 |①---|
口口口口 |----|
②口口② |②---|
①口口① |----|
41
②口口② |①---|
①口口① |----|
口口口口 |②---|
口口口口 |----|
42
口口①口 |①---|
口②②口 |----|
口口口口 |②---|
口口口口 |----|
43
口口口口 |①---|
口口口口 |----|
口①口口 |②---|
口②②口 |----|
44
口口口口 |①---|
①口口① |----|
口口口口 |----|
口口口口 |----|
45
口口口口 |①---|
口①②口 |----|
口口口口 |②---|
口口口口 |----|
46
口口口口 |①---|
口口口口 |----|
①口口① |----|
口口口口 |----|
47
口口口口 |①---|
口口口口 |----|
口①②口 |②---|
口口口口 |----|
48
口口口口 |①---|
口②口口 |----|
①口口口 |②---|
口口口口 |----|
49
口口口口 |①---|
口口①口 |----|
口口口② |②---|
口口口口 |----|
50
口口口口 |①---|
口口口口 |----|
口口口口 |----|
口①①口 |----|
51
口口口口 |----|
口口口口 |----|
口口口口 |----|
口口口口 |----|
52
口口口口 |①---|
口口口口 |----|
口①①口 |----|
口口口口 |----|
53
口口口口 |①---|
口①②口 |----|
口口口口 |②---|
口口口口 |----|
54
口口口口 |①---|
①口口① |----|
口口口口 |----|
口口口口 |----|
55
口口口口 |①---|
口口口口 |----|
口①②口 |②---|
口口口口 |----|
56
口口口口 |①---|
口口口口 |----|
②口口② |②---|
①口口① |----|
57
②口口② |①---|
①口口① |----|
口口口口 |②---|
口口口口 |----|
58
口①口口 |①---|
口②②口 |----|
口口口口 |②---|
口口口口 |----|
59
口口口口 |①---|
口口口口 |----|
口口①口 |②---|
口②②口 |----|
60
口口口口 |①---|
①口口① |----|
口口口口 |----|
口口口口 |----|
61
口口口口 |①---|
口①②口 |----|
口口口口 |②---|
口口口口 |----|
62
口口口口 |①---|
口口口口 |----|
①口口① |----|
口口口口 |----|
63
口口口口 |①---|
口口口口 |----|
口①②口 |②---|
口口口口 |----|
64
口口口口 |①---|
口②口口 |----|
①口口口 |②---|
口口口口 |----|
65
口口口口 |①---|
口口①口 |----|
口口口② |②---|
口口口口 |----|
66
口口口口 |①---|
口③③口 |--②-|
口②②口 |----|
口①①口 |③---|
67
②①①② |--①-|
口口口口 |----|
口口口口 |②---|
口口口口 |----|
68
口口口口 |①---|
①口口口 |----|
②②口口 |②---|
口口口口 |----|
69
口口口口 |①---|
口口①口 |----|
口口②② |②---|
口口口口 |----|
70
口口口口 |①---|
口口口口 |----|
口②②口 |②---|
口①①口 |----|
71
口①①口 |①---|
口②②口 |----|
口口口口 |②---|
口口口口 |----|
72
口口口口 |①---|
口口口① |----|
口口②② |②---|
口口口口 |----|
73
口口口口 |①---|
口①口口 |----|
②②口口 |②---|
口口口口 |----|
74
口口口口 |①---|
口口口口 |----|
口②②口 |②---|
口①①口 |----|
75
口①①口 |①---|
口②②口 |----|
口口口口 |②---|
口口口口 |----|


不确定度: 0

最終更新:2012年11月11日 23:16