シャカビーチ~Laka Laka la~

ADVANCED

Level: 7
BPM: 200
Notes: 361

1
口口口口 |----|
口口口口 |----|
口口口口 |----|
口口口口 |----|
2
口口口口 |----|
口口口口 |----|
口口口口 |----|
口口口口 |----|
3
口口口口 |----|
口口口口 |----|
口口口口 |----|
口口口口 |----|
4
口口口口 |----|
口口口口 |----|
口口口口 |----|
口口口口 |----|
5
口口口口 |----|
口口口口 |----|
口口口口 |----|
口口口口 |----|
6
口口口口 |①---|
口口口口 |----|
口口口口
①口口①

口口口口
口②③口
口口口口 |②-③-|
④口口④ |--④-|
7
口②③口 |--①-|
①口口① |----|
口口口口 |②---|
口口口口 |③---|
8
口口口口 |①---|
口口口口 |----|
口口口口
①口口①

口口口口
口口③口
口②口口 |②-③-|
④口口④ |--④-|
9
口口口口 |----|
①③④② |--①-|
口⑤口口 |②-③-|
口口口口 |④-⑤-|
10
口①①口 |①---|
口口口口 |②---|
③④⑤口 |--③-|
②口口② |④-⑤-|
11
①口口③ |①---|
口口口口 |②-③-|
口口口② |----|
④口口口 |--④-|
12
口口口口 |①---|
口①①口 |②---|
口③③口 |③---|
④口口② |④---|
13
口③④口 |①-②-|
口①②口 |③-④-|
口口口口 |----|
口口口口 |----|
14
口②口口 |①---|
①口①口 |②---|
口②口口 |--③-|
口③④⑤ |④-⑤-|
15
口④⑤口 |①---|
①口③① |②-③-|
口②②口 |--④-|
口口口口 |⑤---|
16
口口口口 |①---|
口口口口 |----|
口②口② |②---|
①口①口 |----|
17
口口口口 |①---|
②④⑤③ |--②-|
口⑥口口 |③-④-|
口①口① |⑤-⑥-|
18
口①①口 |①-②-|
④⑤⑥口 |③---|
口口②口 |--④-|
③口口③ |⑤-⑥-|
19
①口口③ |①---|
口口口口 |②-③-|
口口口② |--④-|
④⑥⑤口 |⑤-⑥-|
20
口③③口 |①---|
口①①口 |②---|
④口口口 |③---|
口口口② |④---|
21
口口口口 |①-②-|
口①②口 |③-④-|
口③④口 |----|
口口口口 |----|
22
口②口口 |①---|
①口①口 |②---|
口②口口 |----|
③口口口 |--③-|
23
口口口口 |①-②-|
口口①② |③-④-|
口③④口 |----|
口口口口 |----|
24
口口口口 |①---|
口口①口 |②---|
口②口② |----|
口③①口 |--③-|
25
②④口② |①---|
③口④③ |②-③-|
口口①口 |--④-|
口口口口 |----|
26
口口口口 |①---|
口口③口 |----|
①④口① |--②-|
口②口口 |③-④-|
27
口口口口 |----|
口口口口 |----|
口口口口 |----|
①口口① |--①-|
28
④口口③ |①-②-|
口口⑤口 |--③-|
口②①口 |--④-|
口口口口 |--⑤-|
29
口口口口 |--①-|
口口③口 |--②-|
口①口口 |----|
口②②口 |--③-|
30
①口口③ |①---|
口口口口 |②---|
口口口口 |③---|
②口口④ |④---|
31
①口口④ |①---|
口口口口 |②-③-|
口口口口 |④---|
②③口⑤ |⑤---|
32
口口口口 |①---|
①口口① |----|
口口口口 |----|
口口口口 |----|
33
口口口口 |----|
口口口口 |----|
口口口口 |----|
口口口口 |----|
34
口口口口 |----|
④④口口 |----|
口②口口 |①-②-|
口①口③ |③-④-|
35
⑤口①⑤ |--①-|
口口②口 |②---|
口口④口 |--③-|
口③口口 |④-⑤-|
36
口口口口 |----|
②口口② |----|
口口口口 |----|
①口口① |①-②-|
37
③⑥⑥③ |--①-|
口口口口 |②-③-|
口⑤②口 |--④-|
口①④口 |⑤-⑥-|
38
口口口口 |----|
口③口口 |----|
②口口口 |--①-|
①口口口 |②-③-|
39
口口口② |--①-|
口口口① |②---|
口口口口 |----|
口口口口 |----|
40
①②⑥⑤ |①-②-|
口口口口 |--③-|
口④口③ |④---|
口口口口 |⑤-⑥-|
41
口口口口 |--①-|
口口口口 |②---|
①口②口 |----|
口③③口 |③---|
42
①①②② |①-②-|
③③④④ |③-④-|
口口口口 |⑤---|
⑤口口⑤ |----|
43
①①②② |①-②-|
③③④④ |③-④-|
⑦口口⑦ |⑤---|
⑤⑥⑥⑤ |⑥-⑦-|
44
口口口口 |----|
口口口口 |----|
②口口② |----|
①口口① |①-②-|
45
④②②④ |----|
口口口口 |①-②-|
③①①③ |----|
口口口口 |③-④-|
46
口口口① |----|
口口口② |----|
口口口口 |----|
口口口口 |①-②-|
47
口口口口 |--①-|
口①口口 |--②-|
⑤口口口 |--③-|
③②口④ |④-⑤-|
48
口口⑥① |①-②-|
口⑤⑦② |--③-|
口口④口 |④-⑤-|
口③口口 |⑥-⑦-|
49
口口口口 |--①-|
②⑤口口 |②---|
①口④口 |--③-|
口③口口 |④-⑤-|
50
口口①① |①---|
②口口口 |②-③-|
③口口口 |----|
口口口口 |----|
51
③口口③ |----|
口口口口 |----|
口口②口 |--①-|
口①口口 |②-③-|
52
口口口口 |----|
②口口② |----|
口口口口 |----|
①口口① |①-②-|
53
③⑥⑥③ |--①-|
口口口口 |②-③-|
口⑤②口 |--④-|
口①④口 |⑤-⑥-|
54
口口口口 |----|
口③口口 |----|
②口口口 |--①-|
①口口口 |②-③-|
55
口口口② |--①-|
口口③① |②---|
口口口口 |----|
口口口口 |--③-|
56
①②⑥⑤ |①-②-|
口口口口 |--③-|
口④口③ |④---|
口口口口 |⑤-⑥-|
57
口口口口 |--①-|
口口口口 |②---|
①口②口 |----|
口③③口 |③---|
58
①①②② |①-②-|
③③④④ |③-④-|
口口口口 |⑤---|
⑤口口⑤ |----|
59
①①②② |①-②-|
③③④④ |③-④-|
⑧口口⑧ |⑤-⑥-|
⑤⑥⑦⑤ |⑦-⑧-|
60
口口口口 |----|
口③③口 |----|
口口口口 |--①-|
①口口② |②-③-|
61
③⑥⑥③ |--①-|
口口口口 |②-③-|
口⑤②口 |--④-|
口①④口 |⑤-⑥-|
62
①口口口 |----|
②口③口 |----|
口口口口 |--①-|
口口口口 |②-③-|
63
口口口口 |--①-|
口口④③ |--②-|
口口口口 |----|
口①口② |③-④-|
64
①②⑥⑤ |①-②-|
口口口口 |--③-|
口④口③ |④---|
口口口口 |⑤-⑥-|
65
口口口口 |--①-|
口口口口 |②---|
①口②口 |----|
口③口口 |--③-|
66
口口口口 |①-②-|
口①②口 |③-④-|
口③④口 |----|
口口口口 |----|
67
口口口口 |----|
口口口口 |----|
口口口口 |①---|
口①①口 |----|
68
①①②② |①-②-|
③③④④ |③-④-|
⑥口口⑦ |⑤---|
⑤口口⑤ |⑥-⑦-|
69
口口口口 |①-②-|
口③③口 |③---|
口口②口 |----|
口①口口 |----|
70
口口口口 |①---|
口口口口 |----|
口③口口 |②---|
①口口② |--③-|
71
口②②口 |--①-|
口口①口 |----|
口口口口 |②---|
口口口口 |----|
72
口口口口 |①---|
口口口口 |----|
口③口口 |②---|
①口口② |--③-|
73
②口口② |----|
①口口① |----|
口口口口 |①---|
口口口口 |②---|
74
口口口口 |①---|
口口口口 |----|
口③口口 |②---|
①口口② |--③-|
75
口②②口 |--①-|
口口口口 |----|
口口①口 |②---|
口口口口 |----|


不确定度: 0

最終更新:2012年11月11日 23:15