シャカビーチ~Laka Laka la~

EXTREME

Level: 8
BPM: 200
Notes: 513

1
口口口口 |----|
口口口口 |----|
口口口口 |----|
口口口口 |----|
2
口口口口 |----|
口口口口 |----|
口口口口 |----|
口口口口 |----|
3
口口口口 |----|
口口口口 |----|
口口口口 |----|
口口口口 |----|
4
口口口口 |----|
口口口口 |----|
口口口口 |----|
口口口口 |----|
5
口口口口 |----|
口口口口 |----|
口口口口 |----|
口口口口 |----|
6
口口口口 |①---|
①②③① |----|
①口口① |②-③-|
④口口④ |--④-|
7
①口口① |--①-|
口②③口 |----|
口③②口 |②---|
口口口口 |③---|
8
③口口③ |①---|
②口口② |----|
口口口口 |②-③-|
①④④① |--④-|
9
③口口④ |----|
口口口口 |--①-|
⑤口口② |②-③-|
①口口口 |④-⑤-|
10
口口口口 |①---|
口①②④ |②---|
口②①口 |--③-|
口⑤口③ |④-⑤-|
11
①①③③ |①---|
口口口口 |②-③-|
口口②口 |----|
口④口口 |--④-|
12
口口口口 |①---|
①④①④ |②-③-|
口口口口 |④---|
⑤⑥③② |⑤-⑥-|
13
①④①④ |①-②-|
口口口口 |③-④-|
口口口口 |----|
口口③② |----|
14
①②①口 |①---|
②②②口 |②---|
①②①口 |--③-|
⑤③④口 |④-⑤-|
15
口⑤⑤口 |①---|
口口③③ |②-③-|
②口①① |--④-|
口口口④ |⑤---|
16
②口口口 |①---|
②口口口 |----|
口口口② |②---|
口①①② |----|
17
④口⑤① |①---|
口口①① |--②-|
⑥①①③ |③-④-|
②口口口 |⑤-⑥-|
18
口口口口 |①-②-|
口③③⑤ |③---|
口②口口 |--④-|
口⑥①④ |⑤-⑥-|
19
①①③③ |①---|
口口口口 |②-③-|
口⑤②口 |--④-|
④⑥口口 |⑤-⑥-|
20
口口口口 |①---|
①④①④ |②-③-|
口口⑤口 |④-⑤-|
⑥⑦③② |⑥-⑦-|
21
①④①④ |①-②-|
口口口口 |③-④-|
口口口口 |----|
口口③② |----|
22
口口口口 |①---|
口①②① |②---|
口②②②
口①②①

口口口口
口口口口
口口口口 |----|
口③口口 |--③-|
23
口口口口 |①-②-|
②④④① |③-④-|
口口口口 |----|
口口③口 |----|
24
①②①口 |①---|
②②②口 |②---|
①②①口
口口口口

口口口口
口口口口
③口口口 |----|
口③口口 |--③-|
25
口②②口 |①---|
口③④口 |②-③-|
口④③① |--④-|
口口①口 |----|
26
口口口口 |①---|
口②③口 |----|
口口口口 |--②-|
①④④① |③-④-|
27
口口口口 |----|
口口口口 |----|
口口口口 |----|
①口①口 |--①-|
28
②④②④ |①-②-|
⑤口⑤口 |--③-|
①口①口 |--④-|
口③口③ |--⑤-|
29
口口口口 |--①-|
口口口口 |--②-|
口①口① |----|
②③②口 |--③-|
30
口口③① |①---|
④口口口 |②---|
口②③① |③---|
口口口口 |④---|
31
口口④① |①---|
口口口口 |②-③-|
②③④① |④---|
⑤口口⑤ |⑤---|
32
①口口① |①---|
口口口口 |----|
口口口口 |----|
口口口口 |----|
33
口口口口 |----|
口口口口 |----|
口口口口 |----|
口口口口 |----|
34
口口口口 |①---|
①口口① |----|
①口口①
口口口口

口口口口
⑤口口⑤
口口③口 |②-③-|
口②④口 |④-⑤-|
35
⑤⑤⑤⑤ |--①-|
口①②口 |②---|
④口口④ |--③-|
③口口③ |④-⑤-|
36
②口口② |----|
口口口口 |----|
口口口口 |----|
①口口① |①-②-|
37
⑥⑥⑥⑥ |--①-|
⑤③③⑤ |②-③-|
②口口② |--④-|
④①①④ |⑤-⑥-|
38
口口口口 |----|
口口口口 |----|
口口②口 |--①-|
③①口③ |②-③-|
39
口③口口 |--①-|
口口②口 |②-③-|
口①口口 |----|
口口口口 |----|
40
⑤口口⑥ |①-②-|
①⑤⑥② |--③-|
口①②口 |④---|
口③④口 |⑤-⑥-|
41
口口口口 |--①-|
口口口口 |②---|
口①②口 |----|
③口口③ |③---|
42
口③口④ |①-②-|
①③③② |③-④-|
①①口口 |⑤---|
口⑤⑤口 |----|
43
口③口④ |①-②-|
①③③② |③-④-|
①①口口
口口口口

口口口口
口口口口
⑦⑦⑦⑦ |⑤---|
⑥⑤⑤⑥ |⑥-⑦-|
44
②口口② |----|
②口口② |----|
口口口口 |----|
①口口① |①-②-|
45
④②②④ |----|
口④④口 |①-②-|
口口口口 |----|
③①①③ |③-④-|
46
口①①口 |----|
口口②口 |----|
口口口口 |----|
口口口口 |①-②-|
47
口口口口 |--①-|
口口口口 |--②-|
①⑤口① |--③-|
③②②④ |④-⑤-|
48
①口口① |①-②-|
⑥②⑦口 |--③-|
⑤口④③ |④-⑤-|
口口口口 |⑥-⑦-|
49
口口口口 |--①-|
口口口口 |②---|
③⑤口④ |--③-|
①①②② |④-⑤-|
50
①口口① |①---|
③口口② |②-③-|
口口口口 |----|
③口口② |----|
51
③③③③ |----|
口口口口 |----|
口②②口 |--①-|
①口口① |②-③-|
52
②口口② |----|
口口口口 |----|
口口口口 |----|
①口口① |①-②-|
53
⑥③③⑥ |--①-|
⑥口口⑥ |②-③-|
②⑤⑤② |--④-|
④①①④ |⑤-⑥-|
54
口口口口 |----|
口口口口 |----|
口口②口 |--①-|
③①口③ |②-③-|
55
口③口口 |--①-|
④口②口 |②-③-|
④①口口 |----|
口口口口 |--④-|
56
口口口① |①-②-|
口口口口 |--③-|
口口口②
口③口口

⑤口口⑥
口⑤⑥口
口口口口 |④---|
口口④口 |⑤-⑥-|
57
口口口口 |--①-|
口口口口 |②---|
口①②口 |----|
③口口③ |③---|
58
口③口④ |①-②-|
①③③② |③-④-|
①①口口 |⑤---|
口⑤⑤口 |----|
59
口③口④ |①-②-|
①③③② |③-④-|
①①口口
口口口口

口口口口
口口口口
⑧⑧⑧⑧ |⑤-⑥-|
⑥⑤⑤⑦ |⑦-⑧-|
60
③口口③ |----|
口③③口 |----|
②口口② |--①-|
①口口① |②-③-|
61
⑥③③⑥ |--①-|
口⑥⑥口 |②-③-|
⑤②②⑤ |--④-|
④①①④ |⑤-⑥-|
62
口②②口 |----|
口口③口 |----|
口①口口 |--①-|
口口口口 |②-③-|
63
口口口口 |--①-|
口口③口 |--②-|
①④口① |----|
口②②口 |③-④-|
64
①口口① |①-②-|
⑥②⑦口 |--③-|
⑤口④③ |④-⑤-|
口口口口 |⑥-⑦-|
65
口口口口 |--①-|
口口口口 |②---|
③口口口 |----|
口①②口 |--③-|
66
③②②③ |①-②-|
④①①④ |③-④-|
口口口口 |----|
口口口口 |----|
67
口口口口 |----|
口口口口 |----|
口口口口 |①---|
口①①口 |----|
68
口③口④ |①-②-|
①③③② |③-④-|
①①口口
口口口口

口口口口
口口口口
口⑦口⑥ |⑤---|
口⑤⑤⑥ |⑥-⑦-|
69
口口③③ |①-②-|
口口口① |③---|
②⑤⑤口 |④---|
口④④口 |⑤---|
70
口口口口 |①---|
①②③① |----|
①口口① |②-③-|
④口口④ |--④-|
71
①口口① |--①-|
口②②口 |----|
口②②口 |②---|
口口口口 |----|
72
口③③口 |①---|
口②②口 |----|
口口口口 |②-③-|
①④④① |--④-|
73
口②③口 |--①-|
口口口口 |----|
①③②① |②---|
口口口口 |③---|
74
口口口口 |①---|
口口口口 |----|
口口口口
①口口①

口口口口
口②③口
口口口口 |②-③-|
④④④④ |--④-|
75
②②②② |--①-|
口口口口 |----|
口①①口 |②---|
口口口口 |----|


不确定度: 0

最終更新:2012年11月11日 23:15