Rocknrolla!
[Champagne]

EXTREME

Level: 8
BPM: 159
Notes: 623

全程BPM在159附近飄忽不定
1
口口口口 |----|
口口口口 |----|
口口口口 |----|
口口口口 |----|
2
①口⑨⑩ |①②-③|
③⑪②⑫ |④-⑤⑥|
⑤⑬④口 |⑦⑧⑨-|
⑨⑧⑦⑥ |⑩⑪⑫⑬|
3
①①口口 |①---|
口口口口 |②-③-|
③口口口
口口②口

⑤⑤口口
口口口口
口口口④ |④--⑤|
④口口口 |----|
4
口口①① |①---|
口口口口 |②-③-|
口口口③
口②口口

口口⑤⑤
口口口口
④口口口 |④--⑤|
口口口④ |----|
5
①①口口 |①---|
口口①口 |②-③-|
③口口口
口口②口

⑤⑤口口
口口口口
口口口④ |④--⑤|
④口口口 |----|
6
口口①① |①---|
口①口口 |②-③-|
口口口③
口②口口

口口⑤⑤
口口口口
④口口口 |④--⑤|
口口口④ |----|
7
①①口口 |①---|
口口①口 |②-③-|
③口口口
口口②口

⑤⑤口口
口口口口
口口④④ |④--⑤|
口④口口 |----|
8
口口①① |①---|
口①口口 |②-③-|
口口口③
口②口口

口口⑤⑤
口口口口
④④口口 |④--⑤|
口口④口 |----|
9
②口口④ |①---|
口④③口 |②-③-|
口⑤①⑤ |④--⑤|
口①⑤① |----|
10
④口口② |①---|
口③④口 |②-③-|
①⑤①口 |④--⑤|
⑤①⑤口 |----|
11
口①②① |①--②|
口⑥口口 |--③-|
口⑤口口 |--④-|
③④③口 |⑤-⑥-|
12
①②①口 |①--②|
③④③口 |--③-|
口口口口 |--④-|
口口口口 |----|
13
③④③口 |①--②|
口⑤口口 |--③-|
口⑥口口 |--④-|
口①②① |⑤-⑥-|
14
口口口口 |①--②|
口口口口 |--③-|
③④③口 |--④-|
①②①口 |----|
15
口①②① |①--②|
口⑥口口 |--③-|
口⑤口口 |--④-|
③④③口 |⑤-⑥-|
16
①②①口 |①--②|
③④③口 |--③-|
口口口口 |--④-|
口口口口 |----|
17
口③④③ |①--②|
口口⑤口 |--③-|
口口⑥口 |--④-|
①②①口 |⑤-⑥-|
18
口口口口 |①--②|
口口口口 |--③-|
口③口③ |----|
口①②① |----|
19
①①②① |①--②|
口①口口 |--③-|
口口③③
③口③口

口口口口
口⑥口口
口⑤口口 |--④-|
口④口口 |⑤-⑥-|
20
①②①① |①--②|
③④③口 |--③-|
口口口口 |--④-|
口口口口 |----|
21
③口③③ |①--②|
口口③口 |--③-|
①①口口
口①②①

口④口口
口⑤口口
口⑥口口 |--④-|
口口口口 |⑤-⑥-|
22
口口口口 |①--②|
口口口口 |--③-|
③④③口 |--④-|
①②①① |----|
23
①①②① |①--②|
口①口口 |--③-|
口口③③
③口③口

口口口口
口⑥口口
口⑤口口 |--④-|
口④口口 |⑤-⑥-|
24
①②①① |①--②|
③④③口 |--③-|
口口口口 |--④-|
口口口口 |----|
25
③口③③ |①--②|
口口③口 |--③-|
①①口口
口①②①

口④口口
口⑤口口
口⑥口口 |--④-|
口口口口 |⑤-⑥-|
26
口口口口 |①--②|
口口口口 |--③-|
③④③口 |--④-|
①②①① |----|
27
口①①口 |①---|
②口口② |----|
②口口② |②---|
口①①口 |----|
28
②口口① |①-②-|
⑥口②⑧ |③-④-|
③⑤口⑤ |⑤-⑥-|
口⑦④口 |⑦-⑧-|
29
④⑤⑤④ |①-②③|
口②③口 |--④-|
口口口口 |----|
①口口① |--⑤-|
30
④口口④ |①-②③|
口③②口 |--④-|
口口口口
①口口①

口口口口
口口口⑤
⑥口口口 |--⑤-|
口口口⑦ |⑥-⑦-|
31
口⑦⑦口 |①-②-|
⑤口口⑤ |③-④-|
口①④口 |⑤--⑥|
⑥③②⑥ |--⑦-|
32
②口口① |①-②-|
⑥口②⑧ |③-④-|
③⑤口⑤ |⑤-⑥-|
口⑦④口 |⑦-⑧-|
33
④⑤⑤④ |①-②③|
口②③口 |--④-|
口口口口 |----|
①口口① |--⑤-|
34
④口口④ |①-②③|
口③②口 |--④-|
口口口口
①口口①

口口口口
口口口⑤
⑥口口口 |--⑤-|
口口口⑦ |⑥-⑦-|
35
口⑦⑦口 |①-②-|
⑤口口⑤ |③-④-|
口①④口 |⑤--⑥|
⑥③②⑥ |--⑦-|
36
①口口② |①-②-|
口⑥⑤⑤ |③-④-|
③③④口 |⑤-⑥-|
⑦⑦⑧口 |⑦-⑧-|
37
④⑤⑤④ |①--②|
口口口口 |③-④-|
①③②① |----|
口口口口 |--⑤-|
38
⑤口口⑤ |①-②③|
④③②口 |④-⑤-|
口口口口
①口口①

口口口口
口口口⑥
⑦口口口 |--⑥-|
口口口⑧ |⑦-⑧-|
39
⑦口口⑦ |①-②-|
⑤④②⑤ |③-④-|
口①③口 |⑤--⑥|
⑥④②⑥ |--⑦-|
40
口②①口 |①-②-|
口⑥⑤⑤ |③-④-|
③③④口 |⑤-⑥-|
⑦⑦⑧口 |⑦-⑧-|
41
④⑤⑤④ |①--②|
口口口口 |③-④-|
①③②① |----|
口口口口 |--⑤-|
42
⑤口口⑤ |①-②③|
④③②口 |④-⑤-|
口口口口
①口口①

口口口口
口口口⑥
⑦口口口 |--⑥-|
口口口⑧ |⑦-⑧-|
43
⑧口口⑧ |①-②-|
⑤④②⑤ |③-④-|
⑦①③⑦ |⑤-⑥-|
⑥④②⑥ |⑦-⑧-|
44
口①②口 |①---|
口②①口 |----|
口①②口 |②---|
口②①口 |----|
45
②①口口 |①-②-|
③口②① |③-④-|
④①③口
口口④①

口口口⑤
口⑥口⑦
口⑧口口 |⑤-⑥-|
口口口口 |⑦-⑧-|
46
①①口口 |①-②③|
⑤⑤口口 |④---|
口口口① |⑤---|
④③②口 |----|
47
②口口⑤ |①-②-|
③⑥②⑦ |③-④-|
④⑧③口 |⑤-⑥-|
①①④口 |⑦-⑧-|
48
②⑤⑤② |①--②|
口口口口 |--③-|
④⑥⑥④ |④--⑤|
①③③① |--⑥-|
49
口③③口 |①--②|
①①①① |--③-|
口口口口
②口口②

④口口④
口口口口
口口口口 |④---|
口口口⑤ |--⑤-|
50
⑥②口⑤ |①--②|
口口①口 |--③-|
①⑤③口 |④--⑤|
③口④口 |--⑥-|
51
口口口口 |①---|
②②②② |②---|
①口口① |③---|
③③③③ |----|
52
①口口① |①--②|
②①①② |--③-|
①③④① |--④-|
⑤⑥口口 |⑤-⑥-|
53
①口口① |①--②|
④①①④ |--③-|
①③口① |--④-|
口口②② |----|
54
①口口① |①--②|
口①①口 |--③-|
①③④① |--④-|
⑤⑥②② |⑤-⑥-|
55
①口口① |①--②|
④①①④ |--③-|
①③口① |--④-|
口口②② |----|
56
①口口① |①--②|
口①①口 |--③-|
①④③① |--④-|
②②⑥⑤ |⑤-⑥-|
57
①口口① |①--②|
④①①④ |--③-|
①口③① |--④-|
②②口口 |----|
58
①口口① |①--②|
口①①口 |--③-|
①③④① |--④-|
⑤⑥②② |⑤-⑥-|
59
①口口① |①--②|
②①①② |--③-|
①③③① |--④-|
④④④④ |----|
60
①②口口 |①②③④|
③④口⑦ |-⑤-⑥|
⑩⑪⑫⑥ |-⑦-⑧|
⑧⑨口⑤ |⑨⑩⑪⑫|
61
①②口口 |①②③④|
③④口⑦ |-⑤-⑥|
⑩⑪⑫⑥ |-⑦-⑧|
⑧⑨口⑤ |⑨⑩⑪⑫|
62
①②口口 |①②③④|
③④口口 |-⑤-⑥|
口口口⑥
口口口⑤

口口口口
⑫⑪⑩⑦
口口⑨口 |-⑦-⑧|
⑧口口口 |⑨⑩⑪⑫|
63
④③②① |①②③④|
⑯⑮⑭⑬ |⑤⑥⑦⑧|
⑫⑪⑩⑨ |⑨⑩⑪⑫|
⑧⑦⑥⑤ |⑬⑭⑮⑯|
64
①①①① |①---|
口口口口 |----|
口口口口 |----|
口口口口 |----|
65
口口口口 |----|
口口口口 |----|
口口口口 |----|
口口口口 |----|
66
口口口口 |--①②|
口口口口 |③---|
口口口口 |----|
①②③口 |----|


不確定度: 0

最終更新:2013年05月28日 15:05