Real Clothes <Album Mix>
Jazztronik

BASIC

Level: 3
BPM: 118
Notes: 194

1
口口口口 |----|
口口口口 |----|
口口口口 |----|
口口口口 |----|
2
口口口口 |①---|
口口口口 |----|
口口口口 |②---|
①口③② |③---|
3
口口口口 |①---|
口口口口 |----|
②③口① |②---|
口口口口 |③---|
4
口口口口 |①---|
①口③② |----|
口口口口 |②---|
口口口口 |③---|
5
②③口① |①---|
口口口口 |----|
口口口口 |②---|
口口口口 |③---|
6
口口口② |①---|
口口口③ |----|
口口口口 |②---|
口口口① |③---|
7
口口①口 |①---|
口口口口 |----|
口口③口 |②---|
口口②口 |③---|
8
口②口口 |①---|
口③口口 |----|
口口口口 |②---|
口①口口 |③---|
9
①口口② |①---|
口④④口 |②---|
口③③口 |③---|
口口口口 |④---|
10
口口口口 |①---|
口口口口 |----|
①口口口 |②---|
口②口口 |----|
11
口口口口 |①---|
口口口口 |----|
口口口① |②---|
口口②口 |----|
12
口②口口 |①---|
①口口口 |----|
口口口口 |②---|
口口口口 |----|
13
口口口口 |①---|
口③③① |----|
口②②口 |②---|
口口口口 |③---|
14
口口口口 |①---|
口口口口 |----|
口口口① |②---|
口口②口 |----|
15
口口口口 |①---|
口口口口 |----|
①口口口 |②---|
口②口口 |----|
16
口口②口 |①---|
口口口① |----|
口口口口 |②---|
口口口口 |----|
17
口口口口 |①---|
①口口口 |----|
口口口口 |----|
②口口口 |②---|
18
口③③口 |①---|
口②②口 |②---|
口口口口 |③---|
口口口① |----|
19
口口口口 |----|
口口口口 |----|
②口口② |①---|
口①①口 |②---|
20
口口口口 |①---|
口①①口 |----|
口口口口 |----|
口口口口 |----|
21
①口口口 |----|
口口口口 |----|
口口口口 |----|
口口口口 |①---|
22
口口口① |①---|
口口口口 |②---|
口②②口 |③---|
口③③口 |----|
23
口口口口 |----|
②口口② |----|
口①①口 |①---|
口口口口 |②---|
24
口①①口 |①---|
口口口口 |----|
口口口口 |----|
口口口口 |----|
25
口口口口 |----|
口口口口 |----|
口口口口 |----|
①口口口 |①---|
26
口③③口 |①---|
口②②口 |②---|
口口口口 |③---|
口口口① |----|
27
口口口口 |----|
口口口口 |----|
②口口② |①---|
口①①口 |②---|
28
口口口口 |①---|
口①①口 |----|
口口口口 |----|
口口口口 |----|
29
①口口口 |----|
口口口口 |----|
口口口口 |----|
口口口口 |①---|
30
口口口① |①---|
口口口口 |②---|
口②②口 |③---|
口③③口 |----|
31
口口口口 |----|
②口口② |----|
口①①口 |①---|
口口口口 |②---|
32
口①①口 |①---|
口口口口 |----|
口口口口 |----|
口口口口 |----|
33
口口口口 |①---|
②口①口 |----|
口①口② |②---|
口口口口 |----|
34
口口④口 |①--②|
口口③口 |--③-|
②口口口 |-④--|
①口口口 |----|
35
口口口④ |①--②|
口口口③ |--③-|
口②口口 |-④--|
口①口口 |----|
36
口④口口 |①---|
口口③口 |②---|
口②口口 |③---|
口口①口 |④---|
37
口口①口 |①---|
口②口口 |②---|
⑤④③口 |③--④|
口口口口 |--⑤-|
38
口口口口 |----|
口口口口 |----|
口口口口 |----|
口口口口 |----|
39
口④④口 |①--②|
口③③口 |--③-|
口②②口 |-④--|
⑤①①口 |⑤---|
40
口③③口 |①---|
口②②口 |②---|
口口口口 |③---|
口口口① |----|
41
口口口口 |----|
口口口口 |----|
②口口② |①---|
口①①口 |②---|
42
口口口口 |①---|
口①①口 |----|
口口口口 |----|
口口口口 |----|
43
①口口口 |----|
口口口口 |----|
口口口口 |----|
口口口口 |①---|
44
口口口① |①---|
口口口口 |②---|
口②②口 |③---|
口③③口 |----|
45
口口口口 |----|
②口口② |----|
口①①口 |①---|
口口口口 |②---|
46
口①①口 |①---|
口口口口 |----|
口口口口 |----|
口口口口 |----|
47
口口口口 |----|
口口口口 |----|
口口口口 |----|
①口口口 |①---|
48
口③③口 |①---|
口②②口 |②---|
口口口口 |③---|
口口口① |----|
49
口口口口 |----|
口口口口 |----|
②口口② |①---|
口①①口 |②---|
50
口口口口 |①---|
口①①口 |----|
口口口口 |----|
口口口口 |----|
51
①口口口 |----|
口口口口 |----|
口口口口 |----|
口口口口 |①---|
52
口口口① |①---|
口口口口 |②---|
口②②口 |③---|
口③③口 |----|
53
口口口口 |----|
②口口② |----|
口①①口 |①---|
口口口口 |②---|
54
口①①口 |①---|
口口口口 |----|
口口口口 |----|
口口口口 |----|
55
口口口口 |①---|
②口①口 |----|
口①口② |②---|
口口口口 |----|
56
口口④口 |①--②|
口口③口 |--③-|
②口口口 |-④--|
①口口口 |----|
57
口口口④ |①--②|
口口口③ |--③-|
口②口口 |-④--|
口①口口 |----|
58
口⑥④口 |①--②|
口⑤③口 |--③-|
②口口口 |-④--|
①口口口 |⑤--⑥|
59
口口口口 |--①-|
④口口④ |-②--|
口口口② |③---|
口③③① |④---|


不确定度: 0

最終更新:2012年11月11日 23:14