Real Clothes <Album Mix>
Jazztronik

ADVANCED

Level: 5
BPM: 118
Notes: 449

1
口口口口 |----|
口口口口 |----|
口口口口 |----|
口口口口 |----|
2
①①口口 |①---|
口③④② |②---|
口口口口 |③---|
口口口口 |④---|
3
口口口口 |①---|
口口口口 |②---|
②④③口 |③---|
口口①① |④---|
4
口③④② |①---|
①①口口 |②---|
口口口口 |③---|
口口口口 |④---|
5
口口口口 |①---|
口口口口 |②---|
口口①① |③---|
②④③口 |④---|
6
口口口① |①---|
口③口① |②---|
口口④口 |③---|
②口口口 |④---|
7
①口口口 |①---|
①口③口 |②---|
口④口口 |③---|
口口口② |④---|
8
②口口口 |①---|
口口④口 |②---|
口③口① |③---|
口口口① |④---|
9
口口④口 |①---|
口③口口 |②---|
④②②口 |③---|
口①①③ |④---|
10
口口口口 |①---|
口③④口 |----|
口口②口 |--②-|
①①口口 |③-④-|
11
①①口口 |①---|
口②口口 |----|
口④③口 |--②-|
口口口口 |③-④-|
12
口口①① |①---|
口口②口 |----|
口③④口 |--②-|
口口口口 |③-④-|
13
口口④口 |①-②-|
口③口口 |----|
④口口口 |③---|
口①②③ |④---|
14
口④口口 |①---|
口③口口 |----|
口②口① |--②-|
口①口口 |③-④-|
15
④口②① |①---|
口口③口 |----|
①口口口 |--②-|
口口口口 |③-④-|
16
口口口口 |①---|
①口②口 |----|
口③④口 |--②-|
口口口① |③-④-|
17
口口口口 |①-②-|
④口口③ |----|
口口口口 |----|
③①②④ |③-④-|
18
口①①口 |①---|
口②口口 |②-③④|
口口③口 |----|
口④口口 |----|
19
④③口口 |----|
口②①口 |----|
口①②口 |①-②-|
口口③④ |③-④-|
20
⑦口口⑦ |①-②③|
①口口口 |④⑤--|
口②③① |⑥--⑦|
⑥④⑤⑥ |----|
21
口口口口 |--①②|
口口口口 |③④--|
口①②口
口③④口

⑥口口⑥
口口⑧口
口⑦口口 |⑤--⑥|
⑤口口⑤ |⑦-⑧-|
22
②①口② |①---|
口口口口 |②-③④|
口③③口 |----|
口④④口 |----|
23
③口口④ |----|
④口口③ |----|
口①②口 |①-②-|
口②①口 |③-④-|
24
⑦口口⑦ |①-②③|
口口口口 |④⑤--|
①②③① |⑥--⑦|
⑥④⑤⑥ |----|
25
口口口口 |--①②|
口口口口 |③④--|
口①②口
口③④口

⑥口口⑥
口口口口
⑦⑧⑦⑧ |⑤--⑥|
⑤口口⑤ |⑦-⑧-|
26
口①①口 |①---|
②口口③ |②-③④|
口口口口 |----|
口④④口 |----|
27
④③口口 |----|
口②①口 |----|
口①②口 |①-②-|
口口③④ |③-④-|
28
⑦口口⑦ |①-②③|
①口口口 |④⑤--|
口②③① |⑥--⑦|
⑥④⑤⑥ |----|
29
口口口口 |--①②|
口口口口 |③④--|
口①②口
口③④口

⑥口口⑥
口口⑧口
口⑦口口 |⑤--⑥|
⑤口口⑤ |⑦-⑧-|
30
②①口② |①---|
口口口口 |②-③④|
口③③口 |----|
口④④口 |----|
31
③口口口 |----|
口③口④ |----|
口口④口 |①-②-|
①口口② |③-④-|
32
口口口口 |①---|
口口口口 |----|
①口口口 |----|
口①口口 |----|
33
②口口口 |①---|
口口②① |----|
②①口口 |②---|
口口口① |----|
34
⑤①⑤① |①②-③|
⑥②⑥② |④-⑤⑥|
③⑦③⑦ |-⑦⑧-|
④⑧④⑧ |----|
35
⑤①⑤① |①②-③|
⑥②⑥② |④-⑤⑥|
③⑦③⑦ |-⑦⑧-|
④⑧④⑧ |----|
36
口③口口 |①---|
口口④② |②---|
①口口口 |③---|
口口口口 |④---|
37
口口口口 |①---|
口口口口 |②---|
口①口口 |③--④|
③⑤④② |--⑤-|
38
口③口口 |--①②|
⑤口⑥② |③-④⑤|
①口口④ |⑥-⑦-|
口⑦口口 |----|
39
口口口① |①②-③|
③口口② |④-⑤⑥|
④口⑤口
口口⑥口

口口口口
⑩口口⑨
口⑦口口 |-⑦⑧-|
⑨⑧口⑩ |⑨-⑩-|
40
口①①口 |①---|
口②口口 |②-③④|
口口③口 |----|
口④口口 |----|
41
④③口口 |----|
口②①口 |----|
口①②口 |①-②-|
口口③④ |③-④-|
42
⑦口口⑦ |①-②③|
①口口口 |④⑤--|
口②③① |⑥--⑦|
⑥④⑤⑥ |----|
43
口口口口 |--①②|
口口口口 |③④--|
口①②口
口③④口

⑥口口⑥
口口⑧口
口⑦口口 |⑤--⑥|
⑤口口⑤ |⑦-⑧-|
44
②①口② |①---|
口口口口 |②-③④|
口③③口 |----|
口④④口 |----|
45
③口口④ |----|
④口口③ |----|
口①②口 |①-②-|
口②①口 |③-④-|
46
⑦口口⑦ |①-②③|
口口口口 |④⑤--|
①②③① |⑥--⑦|
⑥④⑤⑥ |----|
47
口口口口 |--①②|
口口口口 |③④--|
口①②口
口③④口

⑥口口⑥
口口口口
⑦⑧⑦⑧ |⑤--⑥|
⑤口口⑤ |⑦-⑧-|
48
口①①口 |①---|
②口口③ |②-③④|
口口口口 |----|
口④④口 |----|
49
④③口口 |----|
口②①口 |----|
口①②口 |①-②-|
口口③④ |③-④-|
50
⑦口口⑦ |①-②③|
①口口口 |④⑤--|
口②③① |⑥--⑦|
⑥④⑤⑥ |----|
51
口口口口 |--①②|
口口口口 |③④--|
口①②口
口③④口

⑥口口⑥
口口⑧口
口⑦口口 |⑤--⑥|
⑤口口⑤ |⑦-⑧-|
52
②①口② |①---|
口口口口 |②-③④|
口③③口 |----|
口④④口 |----|
53
③口口口 |----|
口③口④ |----|
口口④口 |①-②-|
①口口② |③-④-|
54
口口口口 |①---|
口口口口 |----|
①口口口 |----|
口①口口 |----|
55
②口口口 |①---|
口口②① |----|
②①口口 |②---|
口口口① |----|
56
⑤①⑤① |①②-③|
⑥②⑥② |④-⑤⑥|
③⑦③⑦ |-⑦⑧-|
④⑧④⑧ |----|
57
⑤①⑤① |①②-③|
⑥②⑥② |④-⑤⑥|
③⑦③⑦ |-⑦⑧-|
④⑧④⑧ |----|
58
⑤口⑨① |①②-③|
⑥口⑩② |④-⑤⑥|
③⑪口⑦ |-⑦⑧-|
④口口⑧ |⑨⑩-⑪|
59
口②口口 |①-②③|
⑦③⑥⑦ |-④⑤-|
口⑥④口 |⑥---|
⑦①⑤⑦ |⑦---|


不确定度: 0

最終更新:2012年11月11日 23:14