Real Clothes <Album Mix>
Jazztronik

EXTREME

Level: 8
BPM: 118
Notes: 708

1
口口口口 |----|
口口口口 |----|
口口口口 |----|
口口口口 |----|
2
口③②口 |①-②③|
①口口⑤ |④⑤--|
口口口口
口口④①

口口口口
⑧⑥⑦口
口⑩⑪⑫ |⑥⑦-⑧|
⑨⑥口口 |⑨⑩⑪⑫|
3
口②③口 |①-②③|
⑤口口① |④⑤--|
口口口口
口口④①

口口口口
口⑦⑥⑧
⑫⑪⑩口 |⑥⑦-⑧|
⑨⑥口口 |⑨⑩⑪⑫|
4
口③②口 |①-②③|
①口口⑤ |④⑤--|
口口口口
口口④①

口口口口
⑧⑥⑦口
口⑩⑪⑫ |⑥⑦-⑧|
⑨⑥口口 |⑨⑩⑪⑫|
5
口②③口 |①-②③|
⑤口口① |④⑤--|
口口口口
口口④①

口口口口
口⑦⑥⑧
⑫⑪⑩口 |⑥⑦-⑧|
⑨⑥口口 |⑨⑩⑪⑫|
6
口③②口 |①-②③|
①口口⑤ |④⑤--|
口口口口
口口④①

口口口口
⑧⑥⑦口
⑫⑩⑪口 |⑥⑦-⑧|
⑨⑥口口 |⑨⑩⑪⑫|
7
口②③口 |①-②③|
⑤口口① |④⑤--|
口口口口
口口④①

口口口口
口⑦⑥⑧
⑫⑪⑩口 |⑥⑦-⑧|
⑨⑥口口 |⑨⑩⑪⑫|
8
⑧③②口 |①-②③|
①⑨⑩⑤ |④⑤--|
⑥⑪口⑦ |⑥⑦-⑧|
口⑥④① |-⑨⑩⑪|
9
口口口口 |①②-③|
③口口⑥ |④⑤-⑥|
口口口口
④⑤①②

口⑦⑧口
口⑨⑩口
口⑪⑫口 |⑦⑧⑨⑩|
口⑬⑭口 |⑪⑫⑬⑭|
10
①口口② |①---|
口④口① |②---|
⑤口⑤口 |③-④-|
口⑥③口 |⑤-⑥-|
11
口⑥⑤⑤ |①---|
⑤口③③ |②---|
口④口② |③-④-|
①口口① |⑤-⑥-|
12
①口⑤口 |①---|
口④③口 |②---|
⑤口口② |③-④-|
口⑥口① |⑤-⑥-|
13
口口⑤⑤ |①-②-|
口口④④ |③---|
口②③口 |④---|
①口①口 |⑤---|
14
②口⑥口 |①---|
①口口⑤ |②---|
口⑤④口 |③-④-|
口③口① |⑤-⑥-|
15
⑤⑤口① |①---|
③③④⑥ |②---|
②口口⑤ |③-④-|
①口口口 |⑤-⑥-|
16
口⑤口口 |①---|
口③④口 |②---|
②口①⑤ |③-④-|
①口⑥口 |⑤-⑥-|
17
口口口口 |①-②-|
④④口⑥ |③---|
⑤③②口 |④---|
口①口① |⑤-⑥-|
18
①口口② |①---|
②口口⑤ |②-③④|
口③③口 |----|
口④④口 |⑤---|
19
⑤⑥⑥⑤ |①---|
⑥⑤⑤⑥ |②---|
①口口② |③-④-|
口④③口 |⑤-⑥-|
20
⑥⑦⑥⑦ |①-②③|
⑦⑥⑦⑥ |④⑤--|
①①①① |⑥--⑦|
②④③⑤ |----|
21
⑤⑥⑤⑥ |--①②|
⑥⑤⑥⑤ |③④--|
口⑦口⑧ |⑤--⑥|
④②③① |⑦-⑧-|
22
口②口② |①---|
③口③口 |②-③④|
口口口⑤ |----|
①④口④ |⑤---|
23
口口口口 |①---|
①口口② |②---|
口口口口
口口口口

⑤口口口
⑥④③口
口③④⑥ |③-④-|
口口口⑤ |⑤-⑥-|
24
口口口口 |①-②③|
口口口① |④⑤--|
①口口口
②④③⑤

⑦⑥⑦⑥
⑥⑦⑥⑦
口口口口 |⑥--⑦|
口口口口 |----|
25
⑥⑤⑥⑤ |--①②|
⑤⑥⑤⑥ |③④--|
口⑦口⑧ |⑤--⑥|
④②③① |⑦-⑧-|
26
口②口② |①---|
③口③⑤ |②-③④|
口口口口 |----|
①④口④ |⑤---|
27
⑤⑥⑥⑤ |①---|
⑥⑤⑤⑥ |②---|
①口口② |③-④-|
口④③口 |⑤-⑥-|
28
⑥⑦⑥⑦ |①-②③|
⑦⑥⑦⑥ |④⑤--|
①①①① |⑥--⑦|
②④③⑤ |----|
29
⑤⑥⑤⑥ |--①②|
⑥⑤⑥⑤ |③④--|
口⑦口⑧ |⑤--⑥|
④②③① |⑦-⑧-|
30
口②口② |①---|
③口③口 |②-③④|
口口口⑤ |----|
①④口④ |⑤---|
31
口口口口 |①---|
①口口② |②---|
口口口口
口口口口

⑤口口口
⑥④③口
口③④⑥ |③-④-|
口口口⑤ |⑤-⑥-|
32
口口口④ |①---|
③口口① |②---|
①口口口 |③---|
口口②口 |④---|
33
口口口口 |①②-③|
③口口⑥ |④⑤-⑥|
口口口口
④⑤①②

口⑦⑧口
口⑨⑩口
口⑪⑫口 |⑦⑧⑨⑩|
口⑬⑭口 |⑪⑫⑬⑭|
34
③⑦⑤① |①②-③|
口⑨⑩口 |④-⑤⑥|
口⑪⑫口 |-⑦⑧-|
④⑥⑧② |⑨⑩⑪⑫|
35
⑦③①⑤ |①②-③|
口⑨⑩口 |④-⑤⑥|
口⑪⑫口 |-⑦⑧-|
④⑧⑥② |⑨⑩⑪⑫|
36
口口口口 |①---|
①口口口 |②---|
口口口②
②口口①

③口口④
④口口口
口口③口 |③---|
口口口口 |④---|
37
口①②口 |①---|
③②①口 |②---|
口⑤⑤④ |③--④|
④口口③ |--⑤-|
38
口③口口 |--①②|
口口口口 |③-④⑤|
口⑤口口
口①②④

口口口⑩
口⑦口⑥
口口口⑨ |⑥-⑦-|
口⑧口口 |⑧⑨⑩-|
39
②⑥②⑥ |①②-③|
①⑤①⑤ |④-⑤⑥|
④口④口
③口③口

口口口口
口口⑩口
口⑧口⑧ |-⑦⑧-|
⑨⑦口⑦ |⑨-⑩-|
40
①口口② |①---|
②口口⑤ |②-③④|
口③③口 |----|
口④④口 |⑤---|
41
⑤⑥⑥⑤ |①---|
⑥⑤⑤⑥ |②---|
①口口② |③-④-|
口④③口 |⑤-⑥-|
42
⑥⑦⑥⑦ |①-②③|
⑦⑥⑦⑥ |④⑤--|
①①①① |⑥--⑦|
②④③⑤ |----|
43
⑤⑥⑤⑥ |--①②|
⑥⑤⑥⑤ |③④--|
口⑦口⑧ |⑤--⑥|
④②③① |⑦-⑧-|
44
口②口② |①---|
③口③口 |②-③④|
口口口⑤ |----|
①④口④ |⑤---|
45
口口口口 |①---|
①口口② |②---|
口口口口
口口口口

⑤口口口
⑥④③口
口③④⑥ |③-④-|
口口口⑤ |⑤-⑥-|
46
口口口口 |①-②③|
口口口① |④⑤--|
①口口口
②④③⑤

⑦⑥⑦⑥
⑥⑦⑥⑦
口口口口 |⑥--⑦|
口口口口 |----|
47
⑤⑥⑤⑥ |--①②|
⑥⑤⑥⑤ |③④--|
口口口口 |⑤--⑥|
④②③① |----|
48
②③口口 |--①-|
口①口③ |②-③-|
口口②口
口口口①

口口口口
⑥口⑥口
④⑤⑦⑤ |④-⑤-|
口⑦④口 |⑥-⑦-|
49
③口①口 |①-②-|
④①口口 |③④⑤⑥|
口口口⑤
②口②⑥

口口⑨⑬
口口⑩⑭
⑪⑦口口 |⑦⑧⑨⑩|
⑫⑧口口 |⑪⑫⑬⑭|
50
③①⑨⑬ |①-②-|
④口⑩⑭ |③④⑤⑥|
⑪⑦口⑤ |⑦⑧⑨⑩|
⑫⑧②⑥ |⑪⑫⑬⑭|
51
⑤①⑪⑮ |①②③④|
⑥②⑫⑯ |⑤⑥⑦⑧|
⑬⑨③⑦ |⑨⑩⑪⑫|
⑭⑩④⑧ |⑬⑭⑮⑯|
52
②口③口 |--①-|
口①口口 |②-③-|
口口②口
③口口①

口口口口
⑥口⑥口
④⑤⑦⑤ |④-⑤-|
口⑦④口 |⑥-⑦-|
53
口③①③ |①-②-|
④①④口 |③-④-|
口口口口
②口②口

⑧口口⑧
口⑦口⑦
⑥⑤⑥⑤ |⑤-⑥-|
口口口口 |⑦-⑧-|
54
口②口口 |①-②-|
②口口口 |③-④-|
④口口③
①④③①

口口⑤⑧
口⑥口⑤
口⑧⑦口 |⑤-⑥-|
⑦口口⑥ |⑦-⑧-|
55
①⑤③口 |①-②-|
⑦④①⑥ |③-④-|
②口⑧③ |⑤-⑥-|
口④②口 |⑦-⑧-|
56
③⑦⑤① |①②-③|
口⑨⑩口 |④-⑤⑥|
口⑪⑫口 |-⑦⑧-|
④⑥⑧② |⑨⑩⑪⑫|
57
⑦③①⑤ |①②-③|
口⑨⑩口 |④-⑤⑥|
口⑪⑫口 |-⑦⑧-|
④⑧⑥② |⑨⑩⑪⑫|
58
③①③① |①②-③|
⑤口口⑤ |④-⑤⑥|
⑥口口⑥
②④②④

⑪⑨⑪⑨
口⑦⑦口
口⑧⑧口 |-⑦⑧-|
⑩口⑩口 |⑨⑩-⑪|
59
口口口口 |①-②③|
④②④② |-④⑤-|
③⑤③⑤
口①口①

口口⑦口
口⑦口⑦
⑦口⑦口 |⑥---|
⑥⑦⑥口 |⑦---|


不确定度: 0

最終更新:2012年11月11日 23:14