女々しくて
ゴールデンボンバー

BASIC

Level: 4
BPM: 143
Notes: 216

1
口口口口 |----|
口口口口 |----|
口口口口 |----|
口口口口 |----|
2
①①②② |①---|
①①②② |--②-|
口③③口 |----|
口③③口 |③---|
3
口口口口 |----|
口口口口 |----|
口①①口 |①---|
口口口口 |----|
4
口口口口 |①---|
①①①① |----|
口口口口 |----|
口口口口 |----|
5
口口口口 |----|
口口口口 |----|
口口口口 |----|
口口口口 |----|
6
口口口口 |----|
口口口口 |----|
口口口口 |----|
口口口口 |----|
7
口口口口 |----|
口口口口 |----|
口口口口 |----|
口口口口 |----|
8
②④口口 |①---|
①③口口 |②---|
口口口口 |③---|
口口口口 |④---|
9
口口口口 |①---|
口口口口 |②---|
口口②④ |③---|
口口①③ |④---|
10
口口②口 |①---|
口口①口 |②---|
口④口口 |③---|
口③口口 |④---|
11
口口口口 |①---|
①口口① |----|
②口口② |②---|
口口口口 |----|
12
口口口口 |①---|
口②口口 |----|
口①口口 |②---|
口口口口 |----|
13
口口口口 |①---|
①口②口 |②---|
口④口③ |③---|
口口口口 |④---|
14
口口口口 |----|
口口口口 |①---|
口②②口 |----|
口①①口 |②---|
15
口口口口 |①---|
口①①口 |----|
口口口口
口口口口

口口口口
②③③②
口口口口 |②---|
口口口口 |③---|
16
口口口口 |①---|
口②口口 |----|
口①口口 |②---|
口口口口 |----|
17
口口口口 |①---|
①口②口 |②---|
口④口③ |③---|
口口口口 |④---|
18
口口口口 |----|
口口口口 |①---|
口②②口 |----|
口①①口 |②---|
19
口④④口 |①---|
③①①③ |②---|
②口口② |③---|
口口口口 |④---|
20
①口口口 |----|
口口②口 |①---|
口口口口 |----|
口口口口 |②---|
21
口口口② |①---|
口口③① |----|
口口口口 |②---|
口口口口 |③---|
22
②口口口 |①---|
口口口口 |----|
口①口口 |②---|
口口口口 |----|
23
口口口口 |①---|
口口①口 |②---|
口④③② |③---|
口口口口 |④---|
24
口④④口 |①---|
口口口口 |②---|
①口口口 |③---|
口②③口 |④---|
25
①③口④ |①---|
口②口口 |②---|
口口口口 |③---|
口口口口 |④---|
26
口口口口 |①---|
口口①口 |----|
口口口口 |----|
口口口口 |----|
27
③③③③ |①---|
②口口② |----|
口①①口 |②---|
口口口口 |③---|
28
口口口口 |①---|
口口口口 |②---|
①③②口 |③---|
口口口口 |----|
29
口口①④ |①---|
口口③② |②---|
口口口口 |③---|
口口口口 |④---|
30
口口口口 |①---|
口口口口 |②---|
口②③① |③---|
口口口口 |----|
31
口①口口 |①---|
②④④口 |②---|
口③③口 |③---|
口口口口 |④---|
32
口口口口 |①---|
口口口口 |②---|
①③②口 |③---|
口口口口 |----|
33
口口①④ |①---|
口口③② |②---|
口口口口 |③---|
口口口口 |④---|
34
口口口口 |----|
口口③口 |①---|
口②口口 |②---|
口口①口 |③---|
35
口①口口 |①---|
口口口口 |----|
口口口口 |----|
口口口口 |----|
36
口口口口 |----|
口口口口 |----|
口口口口 |----|
口口口口 |----|
37
①①口口 |①---|
①①口口 |--②-|
口口②② |----|
口口②② |----|
38
口口③③ |①---|
口口口口 |②---|
口②口口 |③---|
①口口口 |----|
39
①①口口 |①---|
①①口口 |--②-|
口口②② |----|
口口②② |----|
40
口口口① |①---|
口口②口 |②---|
口口口口 |③---|
③③口口 |----|
41
①①口口 |①---|
①①口口 |--②-|
口口②② |----|
口口②② |----|
42
口口口③ |①---|
口口④口 |②---|
口②口口 |③---|
①口口口 |④---|
43
口④④口 |①---|
口③③口 |②---|
口②②口 |③---|
口①①口 |④---|
44
②口口② |①---|
①口口① |----|
口口口口 |②---|
口口口口 |----|
45
口③③口 |①---|
口③③口 |--②-|
②②①① |----|
②②①① |③---|
46
口口口口 |----|
口口口口 |----|
口①①口 |①---|
口口口口 |----|
47
口口口口 |①---|
①①①① |----|
口口口口 |----|
口口口口 |----|
48
口口口口 |----|
口口口口 |----|
口口口口 |----|
口口口口 |----|
49
口口口口 |----|
口口口口 |----|
口口口口 |----|
口口口口 |----|
50
口口口口 |----|
口口口口 |----|
口口口口 |----|
口口口口 |----|
51
②④口口 |①---|
①③口口 |②---|
口口口口 |③---|
口口口口 |④---|
52
口口口口 |①---|
口口口口 |②---|
口口②④ |③---|
口口①③ |④---|
53
口口②口 |①---|
口口①口 |②---|
口④口口 |③---|
口③口口 |④---|
54
口口口口 |①---|
①口口① |----|
②③⑤④ |②-③-|
口口口口 |④-⑤-|
55
③口口③ |①---|
④②②④ |--②-|
口口口口 |----|
口①①口 |③-④-|


不确定度: 0

最終更新:2012年11月11日 23:13