女々しくて
ゴールデンボンバー

ADVANCED

Level: 7
BPM: 143
Notes: 420

1
口口口口 |----|
口口口口 |----|
口口口口 |----|
口口口口 |----|
2
口口口口 |①---|
②③②口 |②-③-|
口①口口
②口②口

④口④口
口口口口
④⑤④口 |--④-|
口口口口 |⑤---|
3
口口口口 |①---|
①口①④ |----|
口口③③ |②--③|
①②①② |--④-|
4
口③口口 |①-②-|
口②口口 |③---|
①①口口
口口口口

口口口口
口⑥⑤口
口口口口 |④---|
口口④④ |⑤-⑥-|
5
口②口口 |①---|
口口④⑤ |②---|
①①口口 |③---|
口口③③ |④-⑤-|
6
②②口口 |①---|
口口③③ |②---|
①①口口 |③---|
⑤口④④ |④-⑤-|
7
②口口② |①---|
口口口口 |----|
口①①口 |②---|
口口口口 |----|
8
①口口④ |--①-|
口②⑤口 |②-③-|
口⑥③口 |④-⑤-|
口口口口 |⑥---|
9
口口口口 |--①-|
口③⑥口 |②-③-|
口⑤②口 |④-⑤-|
④口口① |⑥---|
10
①口口④ |--①-|
口②⑤口 |②-③-|
口⑥③口 |④-⑤-|
口口口口 |⑥---|
11
口①①口 |①-②-|
②②口口 |③-④-|
口口③③
口④④口

⑧⑧⑧⑧
口口口⑦
⑥口口口 |⑤-⑥-|
口口口⑤ |⑦-⑧-|
12
口口口口 |--①-|
⑥⑥⑤④ |②-③-|
口③口口 |④--⑤|
①②口口 |--⑥-|
13
口口口口 |--①-|
④⑤⑥⑥ |②-③-|
口口③口 |④--⑤|
口口②① |--⑥-|
14
①②口口 |--①-|
口③④口 |②-③-|
口口⑥⑤ |④--⑤|
口口口口 |--⑥-|
15
口②口口 |--①-|
口③口口 |②-③-|
①口口口 |--④-|
口④⑤⑥ |⑤-⑥-|
16
口口口口 |--①-|
口⑥⑤④ |②-③-|
口③口口 |④--⑤|
①②口口 |--⑥-|
17
口口口口 |--①-|
④⑤⑥口 |②-③-|
口口③口 |④--⑤|
口口②① |--⑥-|
18
①②口口 |--①-|
口③④口 |②-③-|
口口⑥⑤ |④--⑤|
口口口口 |--⑥-|
19
口口口口 |--①-|
口口⑤⑤ |②-③-|
①②口口 |④---|
口③④④ |⑤---|
20
①口口口 |----|
⑥⑤④口 |①-②③|
口口口⑥ |--④-|
口口②③ |⑤-⑥-|
21
③口口口 |①-②-|
口口口口 |--③-|
③②①口
口口口口

口口⑤口
口④口⑥
口口⑤口 |④-⑤-|
⑦口口⑦ |⑥-⑦-|
22
①口口口 |----|
⑥⑤④口 |①-②③|
口口口⑥ |--④-|
口②③口 |⑤-⑥-|
23
口口口口 |①-②-|
口④口口 |③-④-|
③②①口
口口口口

口口⑤口
口口口⑥
口口⑤口 |--⑤-|
⑦口口⑦ |⑥-⑦-|
24
③②②③ |----|
口口口口 |①---|
口口口口 |②---|
口①①口 |③---|
25
口口口口 |①---|
①口⑥① |②-③-|
②⑤口③ |--④-|
④②③口 |⑤-⑥-|
26
口口口口 |----|
口①口口 |----|
口口口口 |----|
口口口口 |--①-|
27
口④口口 |①--②|
⑤⑤⑤⑤ |--③-|
③口①口 |④---|
口②口口 |⑤---|
28
①②①② |①---|
口③口口 |②--③|
口口口口
口口口口

口⑥口⑥
口口口口
④⑤④⑤ |④-⑤-|
口口口口 |--⑥-|
29
①口①口 |--①-|
⑥②⑥② |②-③-|
③口③口 |④-⑤-|
⑤④⑤④ |⑥---|
30
②①②① |①--②|
④③④口 |③--④|
口口口口
口口口口

口口口⑦
口口口口
口⑤口口 |⑤-⑥-|
⑥口⑥口 |--⑦-|
31
⑤⑤⑤⑤ |--①-|
①口口口 |②-③-|
口④④口 |④---|
③口口② |⑤---|
32
口口口口 |①--②|
口口口口 |③--④|
口④②口
①③①③

口口口口
⑤⑥⑤⑥
口口口口 |⑤-⑥-|
口⑦口⑦ |--⑦-|
33
⑤④⑤④ |--①-|
③口③口 |②-③-|
⑥②⑥② |④-⑤-|
①口①口 |⑥---|
34
口口口口 |--①-|
②①②① |②-③④|
口口口口
口口④③

口口口口
⑦⑧口口
⑤⑤⑥⑥ |--⑤-|
口口口口 |⑥-⑦⑧|
35
口口口口 |----|
口口口口 |----|
口口口口 |----|
口口口口 |----|
36
口口口口 |----|
口口口口 |----|
口口口口 |----|
口口口口 |----|
37
口口口口 |①②③④|
口⑦③口 |⑤-⑥⑦|
⑥②口⑤
①口④口

⑪口⑧口
口口⑫⑩
口口⑨口 |⑧⑨⑩-|
口口口口 |⑪-⑫-|
38
口口口口 |①---|
口口口口 |②--③|
⑤①③口 |④-⑤-|
④口口② |----|
39
口口口口 |①②③④|
口③⑦口 |⑤-⑥⑦|
⑤口②⑥
口④口①

口⑧口口
⑩⑫口口
口⑨口口 |⑧⑨⑩-|
⑪口口口 |⑪-⑫-|
40
①口②② |①---|
口口口口 |②---|
口口④③ |③-④-|
口口口口 |----|
41
口口口口 |①②③④|
口⑦③口 |⑤-⑥⑦|
⑥②口⑤
①口④口

⑪口⑧口
口口⑫⑩
口口⑨口 |⑧⑨⑩-|
口口口口 |⑪-⑫-|
42
口口口口 |①---|
口口口口 |②--③|
口①③口
口口口②

口口口口
口⑦口口
⑤⑥口口 |④-⑤-|
④口口口 |⑥-⑦-|
43
口口口口 |①---|
③③口④ |②---|
⑤⑤②② |③---|
口口①① |④-⑤-|
44
②口口② |①---|
口口①口 |----|
口口口口 |②---|
口口口口 |----|
45
口口口口 |①---|
②③②口 |②-③-|
口①口口
②口②口

④口④口
口口口口
④⑤④口 |--④-|
口口口口 |⑤---|
46
口口口口 |①---|
①口①④ |----|
口口③③ |②--③|
①②①② |--④-|
47
口③口口 |①-②-|
口②口口 |③---|
①①口口
口口口口

口口口口
口⑥⑤口
口口口口 |④---|
口口④④ |⑤-⑥-|
48
口②口口 |①---|
口口④⑤ |②---|
①①口口 |③---|
口口③③ |④-⑤-|
49
②②口口 |①---|
口口③③ |②---|
①①口口 |③---|
⑤口④④ |④-⑤-|
50
②口口② |①---|
口口口口 |----|
口①①口 |②---|
口口口口 |----|
51
①口口④ |--①-|
口②⑤口 |②-③-|
口⑥③口 |④-⑤-|
口口口口 |⑥---|
52
口口口口 |--①-|
口③⑥口 |②-③-|
口⑤②口 |④-⑤-|
④口口① |⑥---|
53
①口口④ |--①-|
口②⑤口 |②-③-|
口⑥③口 |④-⑤-|
口口口口 |⑥---|
54
口①①口 |①-②-|
②②口口 |③-④-|
口口③③
口④④口

口⑧⑧口
口口口⑦
⑥口口口 |⑤-⑥-|
口口口⑤ |⑦-⑧-|
55
①口口① |①---|
②口口② |--②-|
口③③口 |----|
④口口④ |③-④-|


不确定度: 0

最終更新:2012年11月11日 23:13