女々しくて
ゴールデンボンバー

EXTREME

Level: 8
BPM: 143
Notes: 598

1
口口口口 |----|
口口口口 |----|
口口口口 |----|
口口口口 |----|
2
⑥①口口 |①②③④|
②口④口 |⑤-⑥⑦|
⑦③口口
口口口⑤

口口⑨口
口⑩⑬口
口⑭⑧⑫ |⑧⑨⑩-|
口口⑪口 |⑪⑫⑬⑭|
3
①口口② |①---|
②口口③ |----|
③口口④ |②--③|
④口口口 |--④-|
4
口①①口 |①---|
口②③口 |②-③④|
口④口口
口口口口

⑧口⑨⑨
⑦口口口
口口口⑥ |⑤⑥-⑦|
口口口⑤ |⑧-⑨-|
5
口④口⑦ |①-②-|
口①⑦口 |③-④-|
口②⑥⑤ |⑤--⑥|
口③⑤口 |--⑦-|
6
①口口口 |①---|
口①口口 |②-③-|
口③口口
口口②口

⑧⑧口⑦
口口口⑥
⑤口口口 |④⑤-⑥|
④口口口 |⑦-⑧-|
7
②②②口 |①---|
②口①口 |----|
②①①① |②---|
口口①口 |----|
8
口②口② |①-②③|
③口口口 |④⑤⑥-|
口①④口
⑤口口⑥

⑦口⑦口
口口口⑧
⑪⑨口口 |⑦⑧⑨⑩|
口口⑩口 |⑪---|
9
①⑥①⑥ |--①②|
⑦口口② |③④⑤-|
口③⑧⑩ |⑥⑦⑧⑨|
⑤⑨口④ |⑩---|
10
⑥①⑥① |--①②|
②口口⑦ |③④⑤-|
⑩⑧③口 |⑥⑦⑧⑨|
④口⑨⑤ |⑩---|
11
口口口口 |①---|
口①①口 |----|
口口口口
①口口①

②⑤⑤②
④口口④
⑤②②⑤ |②-③-|
③口口③ |④-⑤-|
12
口口口口 |--①-|
口口③口 |②-③-|
口口②口
口口①口

④④口口
口口口口
⑤⑤口口 |④--⑤|
⑦⑦⑥口 |⑥-⑦-|
13
口口口⑤ |①-②-|
⑥⑥①④ |③-④-|
口口⑦③ |⑤--⑥|
⑧⑧口② |⑦-⑧-|
14
口口口口 |①-②-|
口口①口 |③-④-|
②③④口
口口口口

口⑥⑦口
口⑥⑦口
口口口⑤ |⑤--⑥|
口口口口 |--⑦-|
15
⑥⑦⑧口 |①-②-|
⑥⑦⑧口 |③-④-|
口①⑤口 |⑤-⑥-|
口④③② |⑦-⑧-|
16
④④口口 |--①-|
口口⑥③ |②-③-|
⑤⑤口② |④--⑤|
⑦⑦口① |⑥-⑦-|
17
口口④口 |--①-|
⑤⑤③口 |②-③-|
口口②⑥ |④--⑤|
⑦⑦①口 |⑥-⑦-|
18
口⑤⑥口 |--①-|
口⑤⑥口 |②-③-|
①②③④ |④--⑤|
口口口口 |--⑥-|
19
口口口口 |①-②-|
口口口口 |③-④-|
口①口口
③④③②

口⑧⑥⑧
口口⑦口
口⑦⑤⑦ |⑤-⑥-|
口口口口 |⑦-⑧-|
20
②口口口 |①---|
③口口口 |②-③④|
口口④口
①口①②

口口⑥⑦
口口口⑥
⑤口口口 |--⑤-|
⑦⑤口口 |⑥-⑦-|
21
②③口口 |①-②-|
口②①③ |--③-|
口①②口
口口口②

口口④口
④⑥⑤口
⑤⑦口⑥ |④-⑤-|
口口口⑦ |⑥-⑦-|
22
口④⑥④ |----|
③口③口 |①-②③|
②⑤②⑤ |--④-|
口①口口 |⑤-⑥-|
23
口④口④ |①-②-|
口③口③ |③-④-|
口口①口
口①②①

口口口口
⑤口口⑦
⑤口口⑦ |--⑤-|
口⑥⑥口 |⑥-⑦-|
24
⑤口口⑤ |----|
口口④口 |①-②-|
③②口③ |③-④-|
①口口① |⑤---|
25
口⑥⑥口 |①---|
①口口① |②-③-|
②口口④ |--④-|
口③⑤口 |⑤-⑥-|
26
⑥口口② |①---|
③②口口 |②-③-|
口①①④ |--④-|
⑤口⑥口 |⑤-⑥-|
27
⑤①③② |①--②|
⑤口口⑤ |--③-|
口④④⑤ |④---|
③②口① |⑤---|
28
口口②② |①---|
口口③口 |②--③|
①③口口
①①口口

⑤⑤口口
口口口口
口口口④ |④-⑤-|
⑥⑥④④ |--⑥-|
29
③⑤①① |--①-|
口口口口 |②-③-|
②⑥口④ |④-⑤-|
口④⑥⑤ |⑥---|
30
口口①① |①--②|
口②④① |③--④|
口④②口
③③口口

⑤⑤口口
⑤口口⑦
⑦口口口 |⑤-⑥-|
口口⑥⑥ |--⑦-|
31
⑤②口口 |--①-|
③口②⑤ |②-③-|
口③口① |④---|
①口④④ |⑤---|
32
口口③③ |①--②|
口②④口 |③--④|
①④②口
①①口口

⑥⑥口口
口口口口
口口口⑤ |⑤-⑥-|
⑦⑦⑤⑤ |--⑦-|
33
③⑤①① |--①-|
口口口口 |②-③-|
②⑥口④ |④-⑤-|
口④⑥⑤ |⑥---|
34
口③口② |--①-|
口口④口 |②-③④|
口口口口
①①口口

⑤口⑤口
口口口口
口⑥口⑥ |--⑤-|
⑦⑧⑦⑧ |⑥-⑦⑧|
35
口①口口 |----|
口口口口 |----|
口口②口 |--①-|
口口口口 |--②-|
36
口口口口 |①---|
口③口③ |----|
口口口口 |②---|
②①②口 |③---|
37
⑥①口口 |①②③④|
②口④口 |⑤-⑥⑦|
⑦③口口
口口口⑤

口口⑨口
口⑩⑫⑪
口口⑧口 |⑧⑨⑩-|
口口口口 |⑪-⑫-|
38
⑤口④⑤ |①---|
①④口④ |②--③|
口②③② |④-⑤-|
口口②口 |----|
39
⑥①口口 |①②③④|
②口④口 |⑤-⑥⑦|
⑦③口口
口口口⑤

口口⑨口
口⑩口口
口⑫⑧口 |⑧⑨⑩-|
口⑩⑪口 |⑪-⑫-|
40
①口口① |①--②|
②③②③ |③--④|
口口口口
④口④口

⑥口口⑥
口口口口
⑥口口⑥ |⑤-⑥-|
口⑤口⑤ |----|
41
⑥①口口 |①②③④|
②口④口 |⑤-⑥⑦|
⑦③口口
口口口⑤

口口⑨口
口⑩⑫⑪
口口⑧口 |⑧⑨⑩-|
口口口口 |⑪-⑫-|
42
⑤口④⑤ |①---|
①④⑥④ |②--③|
口②③② |④-⑤-|
口⑦②⑦ |⑥-⑦-|
43
⑤口口④ |①---|
口④⑤口 |②---|
③②③② |③---|
①口①口 |④-⑤-|
44
口①①口 |①---|
口口口口 |----|
②口口② |②---|
②口口② |----|
45
⑥①口口 |①②③④|
②口④口 |⑤-⑥⑦|
⑦③口口
口口口⑤

口口⑨口
口⑩⑬口
口⑭⑧⑫ |⑧⑨⑩-|
口口⑪口 |⑪⑫⑬⑭|
46
①口口② |①---|
②口口③ |----|
③口口④ |②--③|
④口口口 |--④-|
47
口①①口 |①---|
口②③口 |②-③④|
口④口口
口口口口

⑧口⑨⑨
⑦口口口
口口口⑥ |⑤⑥-⑦|
口口口⑤ |⑧-⑨-|
48
口④口⑦ |①-②-|
口①⑦口 |③-④-|
口②⑥⑤ |⑤--⑥|
口③⑤口 |--⑦-|
49
①口口口 |①---|
③①口口 |②-③-|
口②口口
口口口口

⑧⑧口⑦
口口口⑥
⑤口口口 |④⑤-⑥|
④口口口 |⑦-⑧-|
50
②②②口 |①---|
②口①口 |----|
②①①① |②---|
口口①口 |----|
51
口②口② |①-②③|
③口口口 |④⑤⑥-|
口①④口
⑤口口⑥

⑦口⑦口
口口口⑧
⑪⑨口口 |⑦⑧⑨⑩|
口口⑩口 |⑪---|
52
①⑥①⑥ |--①②|
⑦口口② |③④⑤-|
口③⑧⑩ |⑥⑦⑧⑨|
⑤⑨口④ |⑩---|
53
⑥①⑥① |--①②|
②口口⑦ |③④⑤-|
⑩⑧③口 |⑥⑦⑧⑨|
④口⑨⑤ |⑩---|
54
口口口口 |①---|
口①①口 |----|
口口口口
①口口①

②⑤⑤②
③口口④
⑤②②⑤ |②-③-|
④口口③ |④-⑤-|
55
口口口口 |①-②-|
④口口④ |③-④-|
口②③口
口①①口

⑧⑥⑤⑦
口⑧⑦口
口⑦⑧口 |⑤-⑥-|
⑦口口⑧ |⑦-⑧-|


不确定度: 0

最終更新:2012年11月11日 23:10