Love Train
Marin&Riena

EXTREME

Level: 8
BPM: 121
Notes: 594

1
口口口口 |----|
口口口口 |----|
口口口口 |----|
口口口口 |----|
2
口①口口 |①-②③|
口④⑤口 |④⑤--|
口口口口
口口②③

⑥⑦口口
⑧口口口
口口⑨⑨ |⑥⑦⑧⑨|
⑩⑩口口 |--⑩-|
3
⑥⑦①口 |①-②③|
⑧④⑤口 |④⑤--|
口口⑨⑨ |⑥⑦⑧⑨|
⑩⑩②③ |--⑩-|
4
口②口① |①-②-|
③①口③ |-③--|
口②口③
口口口口

⑥⑥口口
口⑤⑥口
口口④口 |④-⑤-|
④口⑤口 |-⑥--|
5
④⑤③① |①--②|
①⑥⑦③ |--③-|
口②⑧⑨ |--④⑤|
口③②口 |⑥⑦⑧⑨|
6
口口口口 |①-②③|
④口口① |④---|
口口口口
①口②③

⑤⑥口⑩
口口⑨⑧
口口⑦口 |⑤⑥⑦⑧|
口口口口 |-⑨⑩-|
7
⑤⑥口⑩ |①-②③|
④口⑨⑧ |④---|
口口⑦① |⑤⑥⑦⑧|
①口②③ |-⑨⑩-|
8
④⑧⑨口 |①-②-|
口口口口 |③④--|
②⑥⑦③ |⑤-⑥-|
①⑤⑥② |⑦⑧⑨-|
9
①⑤口⑤ |①--②|
⑤③⑤③ |--③-|
①口④② |--④-|
口口②⑥ |⑤--⑥|
10
口⑤④口 |①-②③|
口⑥口口 |④⑤⑥⑦|
口口⑦①
②③口口

口口口⑩
⑨口⑧⑩
口口口口 |-⑧⑨-|
⑪口口口 |⑩--⑪|
11
口④⑤口 |①-②③|
口口口⑦ |④⑤⑥⑦|
①⑥口口
口口③②

⑩口口口
⑩⑧口口
⑪口口⑨ |-⑧⑨-|
口口口口 |⑩--⑪|
12
口③④① |①②③④|
口⑤口② |⑤⑥⑦⑧|
口口⑦⑥
⑧口口口

⑬口口⑫
口口口⑫
⑩⑪口口 |⑨⑩⑪-|
口口口⑨ |⑫--⑬|
13
⑨口口口 |-①-②|
⑨③②⑧ |③④⑤⑥|
口④⑦① |-⑦⑧-|
⑥口口⑤ |⑨---|
14
口②口① |①②③④|
⑧③⑦口 |⑤⑥⑦⑧|
⑧⑥④口
口口⑤口

口⑩口口
口口口⑨
口口口⑪ |-⑨⑩-|
⑫口⑬⑪ |⑪-⑫⑬|
15
①口②口 |①②③④|
口⑦③⑧ |⑤⑥⑦⑧|
口④⑥⑧
口⑤口口

口口⑩⑫
⑨口口口
⑪⑫口口 |-⑨⑩-|
口口口口 |⑪-⑫-|
16
口口口⑤ |-①②-|
④口口① |③-④⑤|
口口口③
②口口③

口⑧⑦口
口⑥⑩⑩
口口⑨口 |⑥⑦⑧-|
口口口口 |⑨-⑩-|
17
口口②② |①-②-|
口③口口 |③-④⑤|
口①④⑤
口口口口

⑦口口口
口口口⑧
口⑧口口 |-⑥⑦-|
口⑨⑥口 |⑧--⑨|
18
口③口口 |①②③④|
口④②口 |⑤-⑥-|
口口①口
⑥口⑤口

口口⑧口
口⑨⑧口
⑦口口⑦ |⑦--⑧|
口口口口 |---⑨|
19
口口口④ |①②③④|
口口口⑤ |⑤-⑥-|
口⑥①口
③②口口

口⑧口口
口⑧口口
⑦⑨口⑦ |⑦--⑧|
口口口口 |---⑨|
20
③口②口 |①②③④|
④口①口 |⑤⑥⑦-|
口口口口
口⑦⑤⑥

口⑩⑩口
口口⑨口
⑧口口⑧ |⑧-⑨⑩|
口⑪口口 |---⑪|
21
口口⑤口 |①-②-|
⑤②口⑤ |③-④-|
④⑤①口 |⑤---|
⑥⑦⑥③ |⑥--⑦|
22
口⑤口口 |①-②③|
⑥口③④ |④⑤⑥⑦|
口②①口
口口⑦口

口口口口
口⑨口口
口⑩⑨口 |⑧--⑨|
⑧口口⑧ |---⑩|
23
口口口口 |①②③④|
②口①口 |⑤⑥⑦-|
口口口③
④⑥⑤⑦

⑧口口⑨
⑨口口⑧
口⑩⑩口 |⑧--⑨|
口口口口 |--⑩-|
24
④②②④ |①-②-|
⑤口口⑤ |③---|
③⑥⑥③ |④-⑤-|
口⑦①口 |⑥--⑦|
25
口④④口 |①-②-|
口口③口 |③-④-|
②口口口
口口①口

⑤口口⑤
⑥口口⑥
口口口口 |⑤-⑥-|
⑦⑦⑦⑦ |⑦---|
26
④①③② |①-②-|
口口口口 |③-④-|
口③①口
口口口口

口⑨⑨口
⑤口口⑤
⑦口口⑦ |⑤-⑥⑦|
⑥⑧口⑥ |⑧-⑨-|
27
②口口② |①-②-|
④口口④ |③-④-|
③口①③
口口口口

口口⑧口
口⑦口口
口口⑥口 |⑤-⑥⑦|
⑤⑨⑨⑤ |⑧-⑨-|
28
⑨②④⑨ |①-②-|
③⑦⑦① |③-④-|
⑤⑥⑥⑤ |⑤-⑥⑦|
口口⑧口 |⑧-⑨-|
29
④②②④ |--①-|
③⑤⑤③ |②-③-|
①口口① |④-⑤-|
⑥⑦口⑥ |⑥-⑦-|
30
④①③② |①-②-|
⑤⑨⑨⑤ |③-④-|
⑦③①⑦ |⑤-⑥⑦|
⑥⑧口⑥ |⑧-⑨-|
31
②①①② |①-②-|
④口口④ |③-④-|
口③③口
口口口口

口口⑧口
口⑦⑥口
口口口口 |⑤-⑥⑦|
⑤⑨⑨⑤ |⑧-⑨-|
32
口②④口 |①-②-|
③⑦⑦① |③-④-|
⑤⑥⑥⑤ |⑤-⑥⑦|
口⑧口口 |⑧---|
33
②口口② |①-②-|
④③③④ |③-④-|
口口口口
口口①口

口口口口
口口口口
口口口口 |--⑤-|
⑥⑤⑤⑦ |⑥-⑦-|
34
④①③② |①-②-|
口口口口 |③-④-|
口③①口
口口口口

口⑨⑨口
⑤口口⑤
⑦口口⑦ |⑤-⑥⑦|
⑥⑧口⑥ |⑧-⑨-|
35
②口口② |①-②-|
④口口④ |③-④-|
③口①③
口口口口

口口⑧口
口⑦口口
口口⑥口 |⑤-⑥⑦|
⑤⑨⑨⑤ |⑧-⑨-|
36
⑨②④⑨ |①-②-|
③⑦⑦① |③-④-|
⑤⑥⑥⑤ |⑤-⑥⑦|
口口⑧口 |⑧-⑨-|
37
④②②④ |--①-|
③⑤⑤③ |②-③-|
①口口① |④-⑤-|
⑥⑦口⑥ |⑥-⑦-|
38
④①③② |①-②-|
⑤⑨⑨⑤ |③-④-|
⑦③①⑦ |⑤-⑥⑦|
⑥⑧口⑥ |⑧-⑨-|
39
②①①② |①-②-|
④口口④ |③-④-|
口③③口
口口口口

口口⑧口
口⑦⑥口
口口口口 |⑤-⑥⑦|
⑤⑨⑨⑤ |⑧-⑨-|
40
口②④口 |①-②-|
③⑦⑦① |③-④-|
⑤⑥⑥⑤ |⑤-⑥⑦|
口⑧口口 |⑧---|
41
②口口② |①-②-|
④③③④ |③-④-|
口口口口
口口①口

口⑥⑥口
口口口口
口⑦⑦口 |--⑤-|
口⑤⑤口 |⑥-⑦-|
42
②④④② |①-②-|
⑧①①口 |③---|
③⑦⑥③ |④-⑤⑥|
⑧⑤口口 |⑦-⑧-|
43
⑤口⑦③ |①-②-|
⑥④口② |③-④-|
口口⑦① |--⑤-|
口④口① |⑥-⑦-|
44
⑥①口③ |①-②-|
⑤②⑦④ |③-④-|
口口口口 |--⑤-|
口口⑦④ |⑥-⑦-|
45
⑥口④② |--①-|
口③⑤① |②-③-|
口口口口 |--④-|
口③口口 |⑤-⑥-|
46
口③口① |①-②-|
口④口② |③-④-|
①④③口
②口口口

口口口口
⑧口口口
⑧口口⑤ |⑤-⑥⑦|
口⑦⑥口 |--⑧-|
47
口②口口 |--①-|
口①口③ |②-③-|
口口口口
口口口③

口口④口
口⑥⑤口
口口口口 |--④-|
口⑥口口 |⑤-⑥-|
48
②口口口 |--①-|
①口口③ |②-③-|
口口口口
口口口口

⑧⑤⑦④
口⑥口口
口口口口 |④-⑤-|
口口口口 |⑥⑦-⑧|
49
口口口① |--①②|
④③②⑤ |--③-|
口口口⑥ |④-⑤-|
④口口⑥ |-⑥--|
50
口②②口 |①---|
⑤④④⑤ |②---|
③口口③ |③-④⑤|
口①①口 |----|


不確定度: 0

最終更新:2013年05月27日 20:22