LOVE LOVE SHOW
THE YELLOW MONKEY

EXTREME

Level: 8
BPM: 150
Notes: 551

全程BPM在150附近飄忽不定
1
口口口口 |----|
口口口口 |----|
口口口口 |----|
口口口口 |----|
2
①③②④ |①-②-|
口⑦口口 |③-④-|
口③口口 |⑤-⑥-|
⑤⑦⑥⑧ |⑦-⑧-|
3
①③②④ |①-②-|
口⑦口口 |③-④-|
口③口口 |⑤-⑥-|
⑤⑦⑥⑧ |⑦-⑧-|
4
①口口⑤ |①-②-|
③⑦③⑦ |③-④-|
②口口⑥ |⑤-⑥-|
④口口⑧ |⑦-⑧-|
5
①口口⑤ |①-②-|
③⑦③⑦ |③-④-|
②口口⑥ |⑤-⑥-|
④口口⑧ |⑦-⑧-|
6
①③②④ |①-②-|
口⑦口口 |③-④-|
口③口口 |⑤-⑥-|
⑤⑦⑥⑧ |⑦-⑧-|
7
①③②④ |①-②-|
口⑦口口 |③-④-|
口③口口 |⑤-⑥-|
⑤⑦⑥⑧ |⑦-⑧-|
8
①口口⑤ |①-②-|
③⑦③⑦ |③-④-|
②口口⑥ |⑤-⑥-|
④口口⑧ |⑦-⑧-|
9
①②③④ |①②③④|
⑤口口口 |⑤-⑥-|
口⑥口口
口⑥口口

口口⑩口
口⑨口口
口口⑦⑧ |⑦-⑧-|
口口⑦⑧ |⑨-⑩-|
10
①②口③ |①-②-|
口口④③ |③-④-|
⑤⑥口⑦ |⑤-⑥-|
口口⑧⑦ |⑦-⑧-|
11
③口②① |①-②-|
③④口口 |③-④-|
⑦口⑥⑤ |⑤-⑥-|
⑦⑧口口 |⑦-⑧-|
12
①②口③ |①-②-|
口口④③ |③-④-|
⑤⑥口⑦ |⑤-⑥-|
口口⑧⑦ |⑦-⑧-|
13
口②①口 |①-②-|
①⑥⑤③ |③-④-|
口④⑦口 |⑤-⑥-|
口⑧口口 |⑦-⑧-|
14
①口口① |①-②-|
口口口② |③-④-|
口口口③
口口口④

口口口⑧
口口口口
口口口口 |⑤-⑥-|
⑦⑥⑤口 |⑦-⑧-|
15
口口③口 |①-②-|
口口口① |③-④-|
口口口②
口口④③

⑦⑤口⑦
口口口⑧
口口口口 |⑤-⑥-|
⑥⑤口口 |⑦-⑧-|
16
口口口口 |①-②-|
①口口口 |③-④-|
口口口①
口④③②

口口口⑥
口口口⑦
口口口⑧ |⑤-⑥-|
⑤口口口 |⑦-⑧-|
17
口口③口 |①-②-|
口口口口 |③-④-|
口口口口
④③②①

⑦⑤口⑤
口口口⑥
口口口⑦ |⑤-⑥-|
口口口⑧ |⑦-⑧-|
18
口口口④ |①-②-|
①口口口 |③-④-|
口口口口
③②①口

口口口口
口口口⑤
口口口⑥ |⑤-⑥-|
口口⑧⑦ |⑦-⑧-|
19
口口③③ |①-②-|
口口口④ |③-④-|
口口口口
②①口口

⑦⑤口口
口口口口
口口口⑤ |⑤-⑥-|
口⑧⑦⑥ |⑦-⑧-|
20
口口口② |①-②-|
①口口③ |③-④-|
口口口④
①口口口

口⑧⑦口
口口口口
口口口口 |⑤-⑥-|
⑧⑦⑥⑤ |⑦-⑧-|
21
口口口① |①-②-|
口口口② |③-④-|
⑥⑦⑧③ |⑤-⑥-|
口口⑤④ |⑦-⑧-|
22
④③②① |①-②-|
口口口口 |③-④-|
口口口口
口口口口

口口口⑧
⑤口口口
⑥口口口 |⑤-⑥-|
⑦口口口 |⑦-⑧-|
23
③②①口 |①-②-|
④口口③ |③-④-|
口口口口
口口口口

口口⑧⑦
口口口口
⑤口口⑤ |⑤-⑥-|
⑥口口⑦ |⑦-⑧-|
24
②①口口 |①-②-|
③口口口 |③-④-|
④口口口
口口①口

口⑧⑦⑥
口口口口
口口口口 |⑤-⑥-|
⑤口口口 |⑦-⑧-|
25
①口口口 |①-②-|
②口口③ |③-④-|
③口口口
④口口口

⑧⑦⑥⑤
口口口口
口口口⑤ |⑤-⑥-|
口口口⑦ |⑦-⑧-|
26
口口口④ |①-②-|
①口口口 |③-④-|
②口口口
③口①口

⑦⑥⑤口
⑧口口口
口口口口 |⑤-⑥-|
口口口口 |⑦-⑧-|
27
口口④③ |①-②-|
口口口③ |③-④-|
①口口口
②口口口

⑥⑤口口
⑦口口口
⑧口口⑤ |⑤-⑥-|
口口口⑦ |⑦-⑧-|
28
口④③② |①-②-|
口口口口 |③-④-|
口口口口
①口①口

⑤口口口
⑥口口口
⑦口口⑧ |⑤-⑥-|
⑧口口⑦ |⑦-⑧-|
29
④③②① |①-②-|
⑤口口口 |③-④-|
⑥口口口 |⑤-⑥-|
⑦⑧口口 |⑦-⑧-|
30
口口②口 |①---|
口口口口 |②-③-|
口口③口
口口①口

口口口口
口④⑤④
口口口口 |④-⑤-|
口口⑥口 |⑥---|
31
口口②口 |①---|
口④⑤④ |②-③-|
口⑦③口 |④-⑤-|
⑥①⑥① |⑥-⑦-|
32
①②①口 |①---|
口口⑤④ |②-③-|
③口③口 |④-⑤-|
⑥⑦⑥口 |⑥-⑦-|
33
口①②① |①---|
口②③④ |②---|
②③④口 |③---|
③④口口 |④---|
34
⑤⑥⑤口 |①---|
③④③口 |②-③-|
口②口口 |--④-|
口口口① |⑤-⑥-|
35
口口口口 |①-②-|
口口口③ |③---|
①口③②
口③口口

口口⑤④
口⑤④口
⑤④口口 |④---|
口口口口 |⑤---|
36
①口⑦口 |①---|
口口②口 |②-③-|
口③④③ |④-⑤-|
口⑥⑤⑥ |⑥-⑦-|
37
①①口口 |①---|
②②口口 |②---|
③③口口 |③---|
④④口口 |④---|
38
口口②口 |①---|
口口口口 |②-③-|
口口③口
口口①口

口口口口
口④⑤④
口口口口 |④-⑤-|
口口⑥口 |⑥---|
39
口口②口 |①---|
口④⑤④ |②-③-|
口⑦③口 |④-⑤-|
⑥①⑥① |⑥-⑦-|
40
①②①口 |①---|
口口⑤④ |②-③-|
③口③口 |④-⑤-|
⑥⑦⑥口 |⑥-⑦-|
41
口①②① |①---|
口②③④ |②---|
②③④口 |③---|
③④口口 |④---|
42
⑤⑥⑤口 |①---|
③④③口 |②-③-|
口②口口 |--④-|
口口口① |⑤-⑥-|
43
口口口口 |①-②-|
口口口③ |③---|
①口③②
口③口口

口口⑤④
口⑤④口
⑤④口口 |④---|
口口口口 |⑤---|
44
①口口② |①---|
③口口口 |②---|
口口口④ |③-④-|
口口⑤口 |⑤---|
45
④④口口 |①---|
③③口口 |②---|
②②口口 |③---|
①①口口 |④---|
46
③④①口 |①---|
口口①① |--②-|
③口口口 |③---|
口②口② |--④-|
47
口口⑦⑧ |①-②-|
口①⑥⑤ |③-④-|
口②③④ |⑤-⑥-|
口口口口 |⑦-⑧-|
48
③口③口 |①---|
口口口② |--②-|
①①口口 |③---|
口①口② |----|
49
口口口口 |----|
⑤④③口 |①-②-|
⑥口②口 |③-④-|
口口①口 |⑤-⑥-|
50
口口口口 |①---|
口口口口 |②---|
口①口口 |③---|
③②口口 |----|
51
①③④② |①---|
②④③① |②---|
①③④② |③---|
口口口口 |④---|
52
①口口① |①---|
口口口口 |----|
①口口① |----|
口口口口 |----|
53
口①口口 |--①-|
口⑤口② |②-③-|
④③⑥口 |④-⑤-|
⑦口⑦口 |⑥-⑦-|
54
③④①口 |①---|
口口①① |--②-|
③口口口 |③---|
口②口② |--④-|
55
口口⑦⑧ |①-②-|
口①⑥⑤ |③-④-|
口②③④ |⑤-⑥-|
口口口口 |⑦-⑧-|
56
③口③口 |①---|
口口口② |--②-|
①①口口 |③---|
口①④② |--④-|
57
口口口口 |①-②-|
④③②口 |③-④-|
⑤⑥①口 |⑤-⑥-|
⑧⑦口口 |⑦-⑧-|
58
①④口③ |----|
③口口① |①---|
①口口③ |②-③-|
口②②口 |--④-|
59
口口⑥口 |--①-|
口⑥①口 |②-③-|
口②⑤④ |--④-|
③⑤④③ |⑤-⑥-|
60
口①口口 |①---|
①口口口 |----|
口口口口 |----|
口口口口 |----|
61
口口②口 |----|
口口②② |----|
①口口口 |①---|
①①口口 |②---|
62
口口口口 |①-②-|
口①口口 |--③-|
口②③口 |----|
口口口口 |----|
63
口②①口 |①-②-|
①⑥⑤③ |③-④-|
口④⑦口 |⑤-⑥-|
口⑧口⑧ |⑦-⑧-|

不確定度: 0

最終更新:2014年03月24日 22:19