Love at First Sight
Fear, and Loathing in Las Vegas

ADVANCED

Level: 7
BPM: 160
Notes: 565

1
口口口口 |----|
口口口口 |----|
口口口口 |----|
口口口口 |----|
2
口①口口 |①---|
①口口口 |----|
口口①口 |----|
口口①口 |----|
3
口口口口 |----|
口口口口 |----|
口口口口 |----|
口口口口 |----|
4
口①口口 |①---|
口①口口 |----|
口口口① |----|
口口①口 |----|
5
口口口口 |----|
口口口口 |----|
口口口口 |----|
口口口口 |----|
6
口①口口 |①---|
①口口口 |----|
口口①口 |----|
口口口① |----|
7
口口口口 |----|
口口口口 |----|
口口口口 |----|
口口口口 |----|
8
口口①口 |①---|
口口口① |----|
口①口口 |----|
①口口口 |----|
9
口口口口 |----|
口口口口 |----|
口口口口 |----|
口口口口 |----|
10
口口口口 |①---|
口①①口 |----|
①口口① |----|
口口口口 |----|
11
口口口口 |----|
口口口口 |----|
口口口口 |----|
口口口口 |----|
12
口口②口 |①---|
口口②口 |②---|
①①口⑤ |③---|
③③口④ |④-⑤-|
13
①①口④ |①---|
③③口⑤ |②---|
口口②口 |③---|
口口②口 |④-⑤-|
14
口⑤④口 |①---|
③③②口 |②---|
口口②口 |③---|
①①口口 |④-⑤-|
15
②口口口 |①---|
②口①① |②---|
④口口口 |③---|
⑤口③③ |④-⑤-|
16
口⑤口口 |①---|
口④③③ |②---|
口②①① |③---|
口②口口 |④-⑤-|
17
口口①① |①---|
口④⑤口 |②---|
口②口口 |③---|
口②③③ |④-⑤-|
18
②口口口 |①---|
口口口口 |②---|
①口②①
口口口口

口口口口
口口⑤③
④口口口 |③---|
口③口口 |④-⑤-|
19
口①①④ |①---|
③⑤⑥口 |②-③-|
口口②口 |④-⑤⑥|
口⑦口口 |--⑦-|
20
口口口口 |①--②|
口口口口 |--③-|
①③口②
①口口②

口口口口
口口⑥口
⑤口④口 |④---|
口口口口 |⑤-⑥-|
21
口①①④ |①---|
③⑤⑥口 |②-③-|
口口②口 |④-⑤⑥|
口⑦口口 |--⑦-|
22
口①①口 |①---|
③口⑤② |②---|
④口口口 |③---|
②口口③ |④-⑤-|
23
口①①④ |①---|
③⑤⑥口 |②-③-|
口口②口 |④-⑤⑥|
口⑦口口 |--⑦-|
24
口口口口 |①--②|
口口口口 |--③-|
①③口②
①口口②

口口口口
口口⑥口
⑤口④口 |④---|
口口口口 |⑤-⑥-|
25
口①①④ |①---|
③⑤⑥口 |②-③-|
口口②口 |④-⑤⑥|
口⑦口口 |--⑦-|
26
口①①口 |①---|
口口口② |②---|
口口口口
②口口口

④⑤口口
③口口口
口口口口 |③---|
口口口③ |④-⑤-|
27
口口口① |①---|
口口口① |②-③-|
口口③口
口②口口

口⑥⑤口
④口口⑦
口口口口 |④-⑤⑥|
口口口口 |--⑦-|
28
⑤⑥口口 |①--②|
口③③口 |--③-|
①口口② |④---|
①④④② |⑤-⑥-|
29
口口口① |①---|
口口口① |②-③-|
口口③口
口②口口

口⑥⑤口
④口口⑦
口口口口 |④-⑤⑥|
口口口口 |--⑦-|
30
④⑤口口 |①---|
口③③口 |②---|
①口口② |③---|
①口口② |④-⑤-|
31
口口口① |①---|
口口口① |②-③-|
口口③口
口②口口

口⑥⑤口
④口口⑦
口口口口 |④-⑤⑥|
口口口口 |--⑦-|
32
⑤⑥口口 |①--②|
口③③口 |--③-|
①口口② |④---|
①④④② |⑤-⑥-|
33
口口口① |①---|
口口口① |②-③-|
口口③口
口②口口

口⑥⑤口
④口口⑦
口口口口 |④-⑤⑥|
口口口口 |--⑦-|
34
口③③口 |①---|
口口口口 |②---|
①口口② |③---|
①④④② |④---|
35
④口口③ |①---|
口②①口 |②---|
口①②口 |③---|
③口口④ |④---|
36
口③③口 |①-②-|
口口口口 |--③-|
口①②口 |--④-|
口④⑤口 |⑤---|
37
④口口③ |①---|
口②①口 |②---|
口①②口 |③---|
③口口④ |④---|
38
口口口口 |①-②-|
口口口口 |--③-|
口①②口 |--④-|
④③③⑤ |⑤---|
39
④口口③ |①---|
口②①口 |②---|
口①②口 |③---|
③口口④ |④---|
40
口③③口 |①-②-|
口口口口 |--③-|
口①②口 |--④-|
口④⑤口 |⑤---|
41
②口口② |①---|
口③④口 |②---|
①④③① |③---|
口口口口 |④---|
42
③③③③ |①-②-|
①口口② |--③-|
口口口口 |----|
口口口口 |----|
43
⑤口③口 |①-②-|
④口③⑧ |③-④⑤|
①②口⑧ |--⑥-|
⑥⑦口口 |⑦-⑧-|
44
口①口口 |--①-|
口②口⑥ |②-③④|
口口口⑥ |--⑤-|
⑤口③④ |⑥---|
45
⑤⑤②口 |①---|
口③口口 |②-③-|
口④④口 |--④-|
口①口口 |--⑤-|
46
口口②④ |--①-|
口①③⑤ |②-③-|
口口口口 |④-⑤-|
⑥⑥口口 |⑥---|
47
⑤口③口 |①-②-|
④口③⑧ |③-④⑤|
①②口⑧ |--⑥-|
⑥⑦口口 |⑦-⑧-|
48
口①口口 |--①-|
口②口口 |②-③④|
口口⑥⑥ |--⑤-|
⑤口③④ |⑥---|
49
④④口口 |----|
口口③③ |①-②-|
口②口口 |--③-|
口①口口 |--④-|
50
口口口口 |--①-|
口口口口 |②---|
①口口口 |----|
口②②口 |----|
51
①口口① |①---|
口①①口 |--②-|
口④④口 |③---|
②口口③ |④---|
52
④①口④ |①-②-|
口②口口 |--③-|
③口口③ |----|
口口口口 |--④-|
53
口⑤⑤口 |--①-|
口②口口 |②-③-|
口①③口 |④---|
口④④口 |⑤---|
54
口口口口 |①-②-|
①口口口 |--③-|
口口⑤② |--④-|
③④口③ |⑤---|
55
①②③口 |①②③-|
④⑤⑥口 |④⑤⑥-|
⑦⑧⑨口 |⑦⑧⑨-|
⑩⑪⑫口 |⑩⑪⑫-|
56
口③②① |①②③-|
口⑥⑤④ |④⑤⑥-|
口⑨⑧⑦ |⑦⑧⑨-|
口⑫⑪⑩ |⑩⑪⑫-|
57
①④⑦⑩ |①②③-|
②⑤⑧⑪ |④⑤⑥-|
③⑥⑨⑫ |⑦⑧⑨-|
口口口口 |⑩⑪⑫-|
58
口口口口 |①②③-|
③⑥⑨⑫ |④⑤⑥-|
②⑤⑧⑪ |⑦⑧⑨-|
①④⑦⑩ |⑩⑪⑫-|
59
口①②③ |①②③-|
④⑤⑥口 |④⑤⑥-|
口⑦⑧⑨ |⑦⑧⑨-|
⑩⑪⑫口 |⑩⑪⑫-|
60
③②①口 |①②③-|
口⑥⑤④ |④⑤⑥-|
⑨⑧⑦口 |⑦⑧⑨-|
口⑫⑪⑩ |⑩⑪⑫-|
61
①口口① |①---|
口②③口 |②---|
口③②口 |③---|
④口口④ |④---|
62
①③口① |①---|
①口④① |②---|
②②②② |③-④-|
口⑤⑥口 |⑤-⑥-|
63
①口③① |①---|
口③口口 |--②-|
口口口口 |③---|
②口④② |--④-|
64
⑤①口⑤ |①-②-|
口口②口 |③-④-|
口③④口 |--⑤-|
口口口口 |----|
65
口口口口 |①---|
口口口口 |②---|
①③②④ |③---|
①③②④ |④---|
66
①③③① |①-②-|
②④④② |③-④-|
口口口口 |----|
口口口口 |----|
67
口口④④ |①---|
口③口⑤ |②---|
②口口口 |③---|
①口口口 |④-⑤-|
68
①①②② |--①-|
口③③口 |----|
口口口口 |----|
口口口口 |②-③-|
69
③③口口 |--①-|
口④④口 |--②-|
①①口② |----|
口口口② |③-④-|
70
口口口② |--①-|
口口口② |--②-|
③口①① |--③-|
③口口口 |----|
71
口①①口 |①---|
口①①口 |--②-|
口口②口 |③---|
口③③口 |----|
72
口口④口 |①---|
口③④② |②---|
①③口② |③---|
①口口口 |④---|
73
①口口① |①---|
口口口⑤ |②-③-|
⑥②②口 |--④-|
④③③口 |⑤-⑥-|
74
③②②① |--①-|
④口口口 |②---|
口口口⑤ |③-④-|
口口口⑥ |⑤-⑥-|
75
口口③口 |①-②-|
口口口④ |③-④-|
口②③口
①口①口

⑤口口口
口⑥口口
⑤⑧口口 |⑤-⑥-|
⑦口⑦口 |⑦-⑧-|
76
口①口① |①-②-|
口口②③ |③-④-|
口口④口
口口口③

口⑥⑥口
⑤口口口
口口口口 |⑤---|
口口口口 |⑥---|
77
口口口口 |①---|
②①口口 |②---|
口②口①
口口口口

口口口口
口口口口
口口③④ |③---|
③口④口 |④---|
78
①口口① |①---|
⑤③②⑤ |②-③-|
口口口口 |----|
②④④③ |④-⑤-|


不確定度: 0

最終更新:2013年05月27日 20:20