Love at First Sight
Fear, and Loathing in Las Vegas

EXTREME

Level: 9
BPM: 160
Notes: 677

1
口口口口 |----|
口口口口 |----|
口口口口 |----|
口口口口 |----|
2
口口口口 |①---|
①口口① |----|
口①①口 |----|
①口口① |----|
3
口口口口 |----|
口口口口 |----|
口口口口 |----|
口口口口 |----|
4
①口口口 |①---|
①①口① |----|
口口①① |----|
口口口口 |----|
5
口口口口 |----|
口口口口 |----|
口口口口 |----|
口口口口 |----|
6
口①①① |①---|
口口口口 |----|
口口口口 |----|
①①①口 |----|
7
口口口口 |----|
口口口口 |----|
口口口口 |----|
口口口口 |----|
8
口口①① |①---|
①①口① |----|
①口口口 |----|
口口口口 |----|
9
口口口口 |----|
口口口口 |----|
口口口口 |----|
口口口口 |----|
10
口口口口 |①---|
口①口① |----|
口①口① |----|
①口①口 |----|
11
口口口口 |----|
口口口口 |----|
口口口口 |----|
口口口口 |----|
12
口⑤③口 |①---|
②口口口 |②---|
口④口口 |③---|
口口口① |④-⑤-|
13
④口口口 |①---|
口口口① |②---|
⑤口口口 |③---|
③口②口 |④-⑤-|
14
⑩⑨⑥③ |①②③-|
①④⑦⑩ |④⑤⑥-|
口⑧⑤② |⑦⑧⑨-|
⑪⑦④① |⑩-⑪-|
15
⑩⑨⑥③ |①②③-|
①④⑦⑩ |④⑤⑥-|
口⑧⑤② |⑦⑧⑨-|
⑪⑦④① |⑩-⑪-|
16
⑩⑨⑥③ |①②③-|
①④⑦⑩ |④⑤⑥-|
口⑧⑤② |⑦⑧⑨-|
⑪⑦④① |⑩-⑪-|
17
⑩⑨⑥③ |①②③-|
①④⑦⑩ |④⑤⑥-|
口⑧⑤② |⑦⑧⑨-|
⑪⑦④① |⑩-⑪-|
18
口口⑥③ |①②③-|
①④口口 |④⑤⑥-|
口口⑤②
口口④①

⑪⑨口⑪
口口⑦口
口⑧口口 |⑦⑧⑨-|
⑩⑦口⑩ |⑩-⑪-|
19
口口④口 |①---|
①②口① |②-③-|
口口⑤口 |④-⑤⑥|
⑥⑥③⑦ |--⑦-|
20
⑥①口⑥ |①--②|
①口②① |--③-|
④②口③ |④---|
⑤口③⑤ |⑤-⑥-|
21
口⑥③⑥ |①---|
①口口① |②-③-|
②口⑤口 |④-⑤⑥|
⑦⑦口④ |--⑦-|
22
⑤③口⑤ |①---|
③口②③ |②---|
①②口① |③---|
④口①④ |④-⑤-|
23
口口④口 |①---|
口②口口 |②-③-|
①口⑤① |④-⑤⑥|
⑥⑥③⑦ |--⑦-|
24
⑥①口⑥ |①--②|
①口②① |--③-|
④②口③ |④---|
⑤口③⑤ |⑤-⑥-|
25
口⑥③⑥ |①---|
①口口① |②-③-|
②口⑤口 |④-⑤⑥|
⑦⑦口④ |--⑦-|
26
口口口口 |①---|
口口②口 |②---|
①②口①
口口①口

口③口口
③④口③
⑤口④口 |③---|
口口⑤口 |④-⑤-|
27
口口①③ |①---|
口口口口 |②-③-|
⑦口④① |④-⑤⑥|
②⑤⑥口 |--⑦-|
28
口②①② |①--②|
口③③① |--③-|
口口③②
口口口口

④口口口
口口口⑤
⑥口口口 |④---|
口⑤⑥④ |⑤-⑥-|
29
口口①③ |①---|
口②④口 |②-③-|
口口口① |④-⑤⑥|
⑦口⑥⑤ |--⑦-|
30
③①口口 |①---|
①④②口 |②---|
⑤②④口 |③---|
口口⑤口 |④-⑤-|
31
口口①③ |①---|
口口口口 |②-③-|
⑦⑤④① |④-⑤⑥|
②口⑥口 |--⑦-|
32
口②①② |①--②|
口③③① |--③-|
口口③②
口口口口

④口口口
口口口⑤
⑥口口口 |④---|
口⑤⑥④ |⑤-⑥-|
33
口口①③ |①---|
口②④口 |②-③-|
口口口① |④-⑤⑥|
⑦口⑥⑤ |--⑦-|
34
口①口口 |①---|
①口②口 |②---|
口②③④ |③---|
口口④口 |④---|
35
①口②口 |①---|
③口①口 |②---|
口②④口 |③---|
④③口口 |④---|
36
口③口③ |①-②-|
口口口口 |--③-|
口①口①
口口②口

口口口口
④口口口
口⑤口⑤ |--④-|
口口口口 |⑤---|
37
③口口② |①---|
口②①口 |②---|
口③④口 |③---|
④口口① |④---|
38
口口②口 |①-②-|
口①口① |--③-|
口口口口 |----|
口③③③ |----|
39
口口②口 |①---|
①①②口 |②---|
口口①②
口口口口

口口口④
口口口④
③口④口 |③---|
口③③口 |④---|
40
③口③口 |①-②-|
口口口④ |--③-|
⑤①⑤① |--④-|
②口口口 |⑤---|
41
口②②口 |①---|
口③④口 |②---|
口④③口 |③---|
①①①① |④---|
42
③口口③ |①-②-|
①⑥⑦① |--③-|
②⑧⑨② |④-⑤-|
口④⑤口 |⑥⑦⑧⑨|
43
口①口② |①-②-|
口⑧口口 |③-④⑤|
③⑦口④ |--⑥-|
⑥⑧口⑤ |⑦-⑧-|
44
④⑥口口 |--①-|
③口①② |②-③④|
口⑥⑤口 |--⑤-|
口口口口 |⑥---|
45
口⑤②⑤ |①---|
③③②口 |②-③-|
口口④口 |--④-|
口①④口 |--⑤-|
46
③口口口 |--①-|
①口口④ |②-③-|
口口口⑤ |④-⑤-|
⑥口⑥② |⑥---|
47
口①②口 |①-②-|
口口口口 |③-④⑤|
③⑦口④ |--⑥-|
⑥⑧⑧⑤ |⑦-⑧-|
48
④⑥⑥口 |--①-|
③口①② |②-③④|
口口⑤口 |--⑤-|
口口口口 |⑥---|
49
口口④④ |----|
口口③③ |①-②-|
②②口口 |--③-|
①①口口 |--④-|
50
②①口口 |--①-|
②①口口 |②---|
口口口口 |③---|
口口③④ |④---|
51
口②④口 |①---|
①③口① |--②-|
口①①口 |③---|
口口口口 |④---|
52
②④④① |①-②-|
口口口口 |--③-|
口③③口 |----|
口口口口 |--④-|
53
口口口口 |--①-|
①口口② |②-③-|
③⑥口口 |④---|
⑤口口④ |⑤-⑥-|
54
口口口口 |①-②-|
口①④口 |--③-|
口④②口 |--④-|
口③③口 |----|
55
①②③口 |①②③-|
⑨⑧⑦④ |④⑤⑥-|
口口口⑤ |⑦⑧⑨-|
⑩⑪⑫⑥ |⑩⑪⑫-|
56
⑦③②① |①②③-|
⑧口口⑥ |④⑤⑥-|
⑨口口⑤ |⑦⑧⑨-|
⑫⑪⑩④ |⑩⑪⑫-|
57
⑦①口口 |①②③-|
⑧②口⑥ |④⑤⑥-|
⑨③口⑤ |⑦⑧⑨-|
⑫⑪⑩④ |⑩⑪⑫-|
58
口①②③ |①②③-|
⑦⑧⑨⑥ |④⑤⑥-|
口口口⑤ |⑦⑧⑨-|
⑫⑪⑩④ |⑩⑪⑫-|
59
⑥①②③ |①②③-|
⑤⑦⑧⑨ |④⑤⑥-|
④口口口 |⑦⑧⑨-|
⑫⑪⑩口 |⑩⑪⑫-|
60
口口口口 |①②③-|
口口口⑥ |④⑤⑥-|
①②③⑤
口口口④

⑩⑦⑧⑨
⑪口口口
⑫口口口 |⑦⑧⑨-|
口口口口 |⑩⑪⑫-|
61
⑩⑥口⑦ |①②③-|
⑪⑤口⑧ |④⑤⑥-|
⑫④口⑨ |⑦⑧⑨-|
③②①口 |⑩⑪⑫-|
62
口口⑥口 |①②③-|
口口⑤口 |④⑤⑥-|
口口④口
口③②①

⑦口口⑨
口口口口
口口口口 |⑦-⑧-|
⑧口口⑩ |⑨-⑩-|
63
口口口口 |①---|
①口口① |--②-|
①②②①
口①①口

口③③口
④口口口
口口口口 |③---|
口口口口 |--④-|
64
⑥⑤⑤⑥ |①-②-|
口口③口 |③-④-|
②口口口 |--⑤-|
口④口① |⑥---|
65
口④④口 |①---|
口④④口 |②---|
③②③② |③---|
①口口① |④---|
66
①口口③ |①-②-|
口口口② |③-④-|
口⑤口口 |--⑤-|
④④⑥⑥ |⑥---|
67
口口口口 |①---|
口②口② |②---|
①口①口
口口口口

④口口④
③口③口
口⑤⑤口 |③---|
口口口口 |④-⑤-|
68
②①①口 |--①-|
口口③口 |----|
①③口① |----|
口口口口 |②-③-|
69
口口口③ |--①-|
口④口口 |--②-|
口口④口 |----|
②②②① |③-④-|
70
口口口口 |--①-|
口口口② |--②-|
口口口② |--③-|
①③③③ |----|
71
①①①① |①---|
口②②口 |--②-|
③口口③ |③---|
③口口③ |----|
72
④④口④ |①---|
口口②③ |②---|
口口②口 |③---|
口①口口 |④---|
73
口口①口 |①---|
口①口口 |②-③-|
③②口⑥ |--④-|
口④⑤口 |⑤-⑥-|
74
②口口③ |--①-|
②口口④ |②---|
口①口⑤ |③-④-|
口口⑥口 |⑤-⑥-|
75
①②③⑦ |①②③-|
⑥口口⑧ |④⑤⑥-|
⑤口口⑨ |⑦⑧⑨-|
④⑩⑪⑫ |⑩⑪⑫-|
76
⑨⑧⑦口 |①②③-|
③②①口 |④⑤⑥-|
口④⑤⑥ |⑦⑧⑨-|
口⑩⑪⑫ |⑩⑪⑫-|
77
口口⑩④ |①②③-|
③⑨⑪⑤ |④⑤⑥-|
②⑧⑫⑥ |⑦⑧⑨-|
①⑦口口 |⑩⑪⑫-|
78
①口口① |①---|
②口口③ |②-③-|
口口口口
③口口②

⑤口口⑤
口口口口
口⑤⑤口 |----|
口④④口 |④-⑤-|


不確定度: 0

最終更新:2013年05月27日 20:19