フレンズ

BASIC

Level: 2
BPM: 157
Notes: 172

1
口口口口 |----|
口口口口 |----|
口口口口 |----|
口口口口 |----|
2
口口①口 |①---|
口口②口 |----|
口口口口 |----|
口口口口 |②---|
3
口口口口 |①---|
口口口口 |----|
口①①口 |----|
口口口口 |----|
4
口口口口 |①---|
①③口口 |②---|
②④口口 |③---|
口口口口 |④---|
5
口口口口 |①---|
口口①③ |②---|
口口②④ |③---|
口口口口 |④---|
6
口①口口 |①---|
口②口口 |----|
口口口口 |----|
口口口口 |②---|
7
口口口口 |①---|
口口口口 |----|
口①①口 |----|
口口口口 |----|
8
口口口口 |①---|
口口③① |②---|
口口④② |③---|
口口口口 |④---|
9
口口口口 |①---|
③①口口 |②---|
④②口口 |③---|
口口口口 |④---|
10
口口口口 |①---|
口口口口 |----|
口口口口 |----|
口②①口 |②---|
11
口口口口 |①---|
口②③口 |----|
口①口口 |②---|
口口口口 |③---|
12
口口①口 |①---|
口口口口 |----|
口口口口 |----|
口口口口 |----|
13
口①口口 |①---|
口口口口 |----|
口口口口 |----|
口口口口 |----|
14
口口口口 |①---|
口口口口 |----|
口口口口 |----|
口①②口 |②---|
15
口口口口 |①---|
口③②口 |----|
口口①口 |②---|
口口口口 |③---|
16
口①②口 |①---|
口口口口 |----|
口口口口 |②---|
口口口口 |----|
17
口口口口 |①---|
口口①口 |----|
口②②口 |②---|
口口口口 |----|
18
口口口口 |①---|
口口口口 |----|
口口口口 |----|
口②①口 |②---|
19
口口口口 |①---|
口②③口 |----|
口①口口 |②---|
口口口口 |③---|
20
口②①口 |①---|
口口口口 |----|
口口口口 |----|
口口口口 |②---|
21
口口口口 |----|
口口口口 |----|
口口口口 |----|
口口口口 |----|
22
口口口口 |①---|
口口口口 |----|
口口口口 |----|
口①②口 |②---|
23
口口口口 |①---|
口③②口 |----|
口口①口 |②---|
口口口口 |③---|
24
口①②口 |①---|
口口口口 |----|
口口口口 |②---|
口口口口 |----|
25
口口口口 |①---|
口口①口 |----|
口②②口 |②---|
口口口口 |----|
26
口口口口 |①---|
口口口口 |----|
②口口口 |②---|
①口口口 |----|
27
口口口口 |①---|
口口口口 |----|
口①口口 |----|
口口口口 |----|
28
口口口口 |①---|
口口口口 |----|
口口口② |②---|
口口口① |----|
29
口口口口 |①---|
口口口口 |----|
口口①口 |----|
口口口口 |----|
30
口口口口 |①---|
口口口口 |----|
口口口口 |----|
口①①口 |----|
31
口口口口 |①---|
口口口口 |----|
口①口口 |----|
口口口口 |----|
32
口口口口 |①---|
口口口口 |----|
口口①口 |----|
口口口口 |----|
33
口②②口 |①---|
口①①口 |----|
口口口口 |②---|
口口口口 |----|
34
口③口口 |①---|
口②口口 |②---|
口①口口 |③---|
口口口口 |----|
35
口口③口 |①---|
口口②口 |②---|
口口①口 |③---|
口口口口 |----|
36
口口口口 |①---|
①口口① |----|
②口口② |②---|
口口口口 |----|
37
口口口口 |①---|
口②②口 |----|
口①①口 |②---|
口口口口 |----|
38
口口口口 |①---|
①口口① |----|
口口口口 |----|
口口口口 |----|
39
口口口口 |①---|
口口口口 |②---|
①②③④ |③---|
口口口口 |④---|
40
口口口口 |①---|
①口口① |----|
口②②口 |②---|
口口口口 |----|
41
口口口口 |①---|
口口口口 |----|
口口口口 |----|
①口口① |----|
42
口③口口 |①---|
口②口口 |②---|
口①口口 |③---|
口口口口 |----|
43
口口③口 |①---|
口口②口 |②---|
口口①口 |③---|
口口口口 |----|
44
口口口口 |①---|
①口口① |----|
②口口② |②---|
口口口口 |----|
45
口口口口 |①---|
口②②口 |----|
口①①口 |②---|
口口口口 |----|
46
口口口口 |①---|
①口口① |----|
口口口口 |----|
口口口口 |----|
47
口口口口 |①---|
口口口口 |②---|
④③②① |③---|
口口口口 |④---|
48
口口口口 |①---|
①口口① |----|
口②②口 |②---|
口口口口 |----|
49
口口口口 |①---|
②口口② |----|
①口口① |②---|
口口口口 |----|
50
口口口口 |①---|
口口口口 |----|
口①口口 |②---|
口②口口 |----|
51
口口口口 |①---|
④③②① |②---|
口口口口 |③---|
口口口口 |④---|
52
口口口口 |①---|
口口口口 |----|
口口①口 |②---|
口口②口 |----|
53
口口口口 |①---|
①②③④ |②---|
口口口口 |③---|
口口口口 |④---|
54
口口口口 |①---|
口口口口 |----|
口①②口 |②---|
口口口口 |----|
55
口口口口 |①---|
口①②口 |----|
口口口口 |②---|
口口口口 |----|
56
口①②口 |①---|
口口口口 |----|
口口口口 |②---|
口口口口 |----|
57
口口口口 |①---|
①口口② |----|
口口口口 |②---|
口口口口 |----|
58
口④口口 |①---|
口③口口 |②---|
①②口口 |③---|
口口口口 |④---|
59
①口口口 |①---|
②口口口 |----|
口口口口 |②---|
口口口口 |----|
60
口口④口 |①---|
口口③口 |②---|
口口②① |③---|
口口口口 |④---|
61
口口口① |①---|
口口口② |----|
口口口口 |②---|
口口口口 |----|
62
口①口口 |①---|
口②口口 |②---|
口③口口 |③---|
口④口口 |④---|
63
口口口口 |①---|
口口口口 |----|
②口口口 |②---|
①口口口 |----|
64
口口①口 |①---|
口口②口 |②---|
口口③口 |③---|
口口④口 |④---|
65
口口口口 |①---|
口口口口 |----|
口口口② |②---|
口口口① |----|
66
口口口口 |①---|
口①①口 |----|
口口口口 |----|
口口口口 |----|


不确定度: 0

最終更新:2012年11月11日 23:08