フレンズ

ADVANCED

Level: 5
BPM: 157
Notes: 267

1
口口口口 |----|
口口口口 |----|
口口口口 |----|
口口口口 |----|
2
口口口口 |①---|
②口口② |--②-|
①③③① |----|
口口口口 |③---|
3
口口口口 |----|
口口口口 |----|
口口口口 |----|
口口口口 |----|
4
口口口口 |①---|
口口①口 |----|
口①口口 |----|
口口口口 |----|
5
口口口口 |①---|
口①口口 |----|
口口①口 |----|
口口口口 |----|
6
口口口口 |①---|
②口口② |--②-|
①③③① |----|
口口口口 |③---|
7
口口口口 |----|
口口口口 |----|
口口口口 |----|
口口口口 |----|
8
口口口口 |①---|
口①口口 |----|
口口①口 |----|
口口口口 |----|
9
口口口口 |①---|
口口①口 |----|
口①口口 |----|
口口口口 |----|
10
口口口口 |①-②-|
③口口③ |--③-|
口①②口
口口口口

口口口口
口口口口
口④⑤口 |----|
口口口口 |④-⑤-|
11
口口口口 |----|
口②③口 |----|
①口口口 |①--②|
口口口口 |--③-|
12
口口口口 |①---|
口口口口 |--②-|
口②①① |----|
口③口口 |③---|
13
口口口口 |----|
口口口口 |----|
口口口口 |----|
口口口口 |----|
14
口口口口 |①-②-|
③口口③ |--③-|
口①②口
口口口口

口口口口
口口口口
口④⑤口 |----|
口口口口 |④-⑤-|
15
口③③口 |----|
口口口口 |----|
口口②口 |--①-|
口①口口 |②-③-|
16
口口口口 |----|
①②③口 |----|
口口口口 |--①-|
口口口口 |②-③-|
17
口口口口 |①---|
口口口② |②-③-|
口口口③ |----|
口①口口 |----|
18
口口口口 |①-②-|
③口口③ |--③-|
口①②口
口口口口

口口口口
口口口口
口④⑤口 |----|
口口口口 |④-⑤-|
19
口口口口 |----|
口③④口 |--①-|
②口口口 |②--③|
口口①口 |--④-|
20
口口口口 |①---|
口口口口 |--②-|
口②①① |----|
口③口口 |③---|
21
口口口口 |----|
口口口口 |----|
口口口口 |----|
口口口口 |----|
22
口口口口 |①-②-|
③口口③ |--③-|
口①②口
口口口口

口口口口
口口口口
口④⑤口 |----|
口口口口 |④-⑤-|
23
口③③口 |----|
口口口口 |----|
口口②口 |--①-|
口①口口 |②-③-|
24
口口口口 |----|
①口②口 |----|
口口口口 |--①-|
口口口口 |②---|
25
口口口口 |①---|
口口口② |②-③-|
口口口③ |----|
口①口口 |----|
26
口口口口 |----|
①口口① |--①-|
②口口② |----|
口口口口 |②---|
27
口①①口 |----|
②③口④ |--①-|
口口口口 |--②-|
口口口口 |③-④-|
28
口口口口 |①---|
口口口口 |--②-|
口①①口 |----|
②口口③ |③---|
29
口①口口 |----|
口②口口 |----|
口口③口 |--①-|
口口口口 |②-③-|
30
口口口口 |①---|
口口口口 |----|
口口口口 |----|
口口①口 |----|
31
口口口口 |----|
口口③口 |----|
口②口口 |--①-|
口①口口 |②-③-|
32
口口①口 |①---|
口③口口 |----|
②口口② |--②-|
口口口口 |--③-|
33
口口口口 |①---|
②口①② |--②-|
口口口口 |----|
口口口口 |----|
34
②口口② |①---|
③口口③ |②-③-|
口①①口 |----|
口口口口 |----|
35
②口口② |①---|
③④④③ |②-③-|
口①①口 |--④-|
口⑤⑤口 |--⑤-|
36
①口口② |①---|
口口口口 |--②-|
②口口① |----|
口口口口 |----|
37
口口口口 |----|
口③口口 |----|
口②口口 |--①-|
口①口口 |②-③-|
38
口口①① |①---|
②口口口 |--②-|
口口口口 |③---|
③口口口 |----|
39
口口口口 |----|
③口③口 |----|
口②口② |①--②|
口①口① |--③-|
40
口①口① |①---|
口口口口 |----|
口②口② |②---|
口口口口 |----|
41
口口口口 |①---|
口口口口 |----|
口口口口 |----|
①口①口 |----|
42
②口口② |①---|
③口口③ |②-③-|
口①①口 |----|
口口口口 |----|
43
②口口② |①---|
③④④③ |②-③-|
口①①口 |--④-|
口⑤⑤口 |--⑤-|
44
①口口② |①---|
口口口口 |--②-|
②口口① |----|
口口口口 |----|
45
口口口口 |----|
口③口口 |----|
口②口口 |--①-|
口①口口 |②-③-|
46
口口①① |①---|
②口口口 |--②-|
口口口口 |③---|
③口口口 |----|
47
口①口① |----|
③口③口 |----|
口②口② |①--②|
口口口口 |--③-|
48
口口口口 |①---|
口口口口 |----|
口口口口 |----|
①口①口 |----|
49
口口口口 |----|
口口口口 |----|
口口口口 |----|
口口口口 |----|
50
口口口口 |①---|
①口③口 |--②-|
口口口口 |----|
口口②口 |③---|
51
口①口口 |----|
口口②口 |----|
口③口口 |--①-|
口口口口 |②-③-|
52
口口①口 |----|
口②口口 |----|
口口③口 |--①-|
口口口口 |②-③-|
53
口①口口 |--①-|
口口②口 |②-③-|
口③口口 |----|
口口口口 |----|
54
口口口口 |①---|
③③口口 |②---|
②②口口 |③---|
①①口口 |----|
55
口口口口 |①---|
口口③③ |②---|
口口②② |③---|
口口①① |----|
56
①①②② |①---|
③③④④ |②---|
口口口口 |③---|
口口口口 |④---|
57
口口口口 |①-②-|
口口口口 |③-④-|
口③④口 |----|
口①②口 |----|
58
口口口口 |①-②-|
⑤③④⑥ |③-④-|
口①②口 |⑤-⑥-|
口⑦⑦口 |--⑦-|
59
口口②口 |--①-|
口①口③ |②-③-|
口④口口 |----|
口口口口 |--④-|
60
⑥④⑤口 |①-②-|
口②③口 |③-④-|
口口①口 |⑤-⑥-|
⑦口口⑦ |--⑦-|
61
口口口口 |--①-|
口口口口 |②-③-|
口①口③ |----|
口口②口 |----|
62
口口口口 |①-②-|
⑤③④⑥ |③-④-|
口①②口 |⑤-⑥-|
口⑦口口 |--⑦-|
63
口口③口 |①-②-|
口②口④ |③-④-|
口⑤①口 |----|
口口口口 |--⑤-|
64
⑥④⑤⑦ |①-②-|
口②③口 |③-④-|
口口①口 |⑤-⑥-|
口⑧⑧口 |⑦-⑧-|
65
口③③口 |--①-|
①⑥⑥② |②-③-|
口⑤口口 |--④-|
口口④口 |⑤-⑥-|


不确定度: 0

最終更新:2012年11月11日 23:00