フレンズ

EXTREME

Level: 7
BPM: 157
Notes: 449

1
口口口口 |----|
口口口口 |----|
口口口口 |----|
口口口口 |----|
2
口口口口 |①---|
②②②② |--②-|
口口口口 |----|
①③③① |③---|
3
口口口口 |----|
口口口口 |----|
口口口口 |----|
口口口口 |----|
4
口口口口 |①-②-|
口口口④ |③-④-|
①②③口
口口口口

口口口口
口⑥⑤口
⑦⑧口口 |⑤-⑥-|
口口口口 |⑦-⑧-|
5
口口口口 |①-②-|
口④③② |③-④-|
⑤口①⑥ |⑤---|
⑤口口⑥ |⑥---|
6
口①②口 |①---|
③③③③ |--②-|
口②①口 |----|
口口口口 |③---|
7
口口口口 |----|
口口口口 |----|
口口口口 |----|
口口口口 |----|
8
口口口口 |①-②-|
口口口④ |③-④-|
①②③口
口口口口

口口口口
口⑥⑤口
⑦⑧口口 |⑤-⑥-|
口口口口 |⑦-⑧-|
9
⑥⑤⑤⑥ |①-②-|
④口③② |③-④-|
口口①口 |⑤---|
口口口口 |⑥---|
10
口口口口 |①-②-|
口①①③ |--③-|
①②②①
口①①口

口口口口
口口口口
④口口⑤ |----|
④口口⑤ |④-⑤-|
11
口口口口 |----|
①②②① |----|
口③③口 |①--②|
口口口口 |--③-|
12
①口口① |①---|
口口口口 |--②-|
②口口③ |----|
口③②口 |③---|
13
口口口口 |----|
口口口口 |----|
口口口口 |----|
口口口口 |----|
14
③口口③ |①-②-|
口口口口 |--③-|
口口②口
口①口口

口口口口
口④⑤口
口④⑤口 |----|
口口口口 |④-⑤-|
15
③③③③ |----|
口口口口 |----|
②口口② |--①-|
①口口① |②-③-|
16
口口口口 |----|
①口口③ |----|
口②口③ |--①-|
口口口口 |②-③-|
17
②口口③ |①---|
口口口口 |②-③-|
①口①口 |----|
口口口口 |----|
18
①口①口 |①-②-|
①②①口 |--③-|
口①⑤口 |----|
③④口③ |④-⑤-|
19
口口口口 |----|
④口②口 |--①-|
口①③① |②--③|
口口②口 |--④-|
20
口口口① |①---|
口口②① |--②-|
③口②口 |----|
③口口口 |③---|
21
口口口口 |----|
口口口口 |----|
口口口口 |----|
口口口口 |----|
22
③口口③ |①-②-|
口口口口 |--③-|
口口②口
口①口口

口口口口
口⑤⑤口
口口口口 |----|
口④④口 |④-⑤-|
23
口口③③ |----|
口口口口 |----|
②②口口 |--①-|
①①口口 |②-③-|
24
口口口口 |----|
口口口口 |----|
口口②口 |--①-|
口口①口 |②---|
25
口口口口 |①---|
口口②③ |②-③-|
①口口口 |----|
口①口口 |----|
26
①口①口 |----|
口①口口 |--①-|
口②口② |----|
口口②口 |②---|
27
④口口④ |----|
①口口① |--①-|
口口③口 |--②-|
口②口口 |③-④-|
28
口口口口 |①---|
③①①③ |--②-|
③口口③ |----|
②口口② |③---|
29
口②②口 |----|
①③③① |----|
口口口口 |--①-|
口口口口 |②-③-|
30
口口口口 |①---|
口口口口 |----|
口①①口 |----|
口口口口 |----|
31
口口口口 |----|
口②口口 |----|
口口口口 |--①-|
①口③口 |②-③-|
32
口口口口 |①---|
③口③① |----|
口口口口 |--②-|
口②口② |--③-|
33
②②②② |①---|
口口口口 |--②-|
口口口口 |----|
①口①口 |----|
34
②②②② |①---|
③③③③ |②-③-|
①①①① |----|
口口口口 |----|
35
②②②② |①---|
③③③③ |②-③-|
①①①① |--④-|
⑤④④⑤ |--⑤-|
36
①②②① |①---|
口②②口 |--②-|
口②口口 |----|
口口口口 |----|
37
口口口口 |①---|
口口口口 |----|
①口口①
口口口口

③口④⑤
口口口口
④②②口 |②-③-|
⑤口口口 |④-⑤-|
38
口口口口 |①---|
②口口③ |--②-|
口口口① |③---|
口口①口 |----|
39
口口口口 |----|
口③③口 |----|
口①②口 |①--②|
口②①口 |--③-|
40
①口口① |①---|
口口口口 |----|
口②②口 |②---|
口口口口 |----|
41
②口③口 |①-②-|
①④⑤① |③-④-|
口口口口 |⑤-⑥-|
①⑥⑦① |⑦---|
42
②②②② |①---|
③③③③ |②-③-|
①①①① |----|
口口口口 |----|
43
②②②② |①---|
③③③③ |②-③-|
①①①① |--④-|
④口口⑤ |--⑤-|
44
①②②① |①---|
口②②口 |--②-|
口②口口 |----|
口口口口 |----|
45
⑤口口口 |①---|
④口口口 |----|
③口口口 |②-③-|
②①①② |④-⑤-|
46
口口①① |①---|
口②口口 |--②-|
口口口口 |③---|
口③口口 |----|
47
①②口口 |----|
②③口口 |----|
口口③② |①--②|
口口②① |--③-|
48
口口①口 |①---|
口口口口 |----|
口口口口 |----|
口①口口 |----|
49
口③②口 |①-②-|
口口④口 |③-④-|
⑤①口⑥ |⑤-⑥-|
口⑦⑦口 |⑦---|
50
③口口③ |①---|
①口口② |--②-|
口口口口 |----|
①口口② |③---|
51
口口口口 |----|
口口①口 |----|
口③③口 |--①-|
口②口口 |②-③-|
52
口口口口 |----|
①口口口 |----|
口③③口 |--①-|
口口口② |②-③-|
53
④⑤口口 |--①-|
口口口① |②-③-|
口口口口 |----|
②③③口 |--④⑤|
54
⑧⑨口口 |①-②-|
口⑥③① |③-④-|
口⑥③① |⑤-⑥-|
②④⑤⑦ |⑦-⑧⑨|
55
⑥⑦口口 |①-②-|
⑤口③① |③-④-|
④⑤③① |--⑤-|
②④口口 |--⑥⑦|
56
口⑦⑥⑤ |①-②-|
口口③① |③-④-|
④口③① |--⑤-|
②④口口 |⑥-⑦-|
57
口口口口 |①-②-|
②口口② |③-④-|
④①①④
口③③口

口口口口
⑤口口口
口口口口 |----|
口口口口 |--⑤-|
58
口④④口 |①-②-|
⑥口③⑥ |③-④-|
口②口口 |--⑤-|
①⑤⑤① |--⑥-|
59
口③③口 |--①-|
④口②口 |②-③-|
口①口口 |----|
口口口口 |--④-|
60
⑦④④⑦ |①-②-|
口口③口 |③-④-|
⑤②口⑤ |⑤-⑥-|
①⑥⑥① |--⑦-|
61
口口口口 |--①-|
③①②③ |②-③-|
口②①口
口口口口

口口口口
口④口口
口口口口 |----|
口口口口 |--④-|
62
④⑦口④ |①-②-|
口口③口 |③-④-|
口②⑤口 |⑤-⑥-|
①口⑥① |--⑦-|
63
口口口口 |①-②-|
③③②② |③-④-|
口口口口
①①④④

口口口口
口口⑤口
口口口口 |----|
口口口口 |--⑤-|
64
⑧④口⑧ |①-②-|
口⑤⑥口 |③-④-|
①口③① |⑤-⑥-|
口②⑦口 |⑦-⑧-|
65
⑥⑥⑥⑥ |--①-|
①③③② |②-③-|
②⑤⑤① |--④-|
④口口④ |⑤-⑥-|


不确定度: 0

最終更新:2012年11月11日 22:59