千本桜
黒うさP

BASIC

Level: 3
BPM: 154
Notes: 225

1
口口口口 |----|
口口口口 |----|
口口口口 |----|
口口口口 |----|
2
口口口口 |①---|
口口口口 |----|
口②②口 |②---|
口①①口 |----|
3
口②②口 |①---|
口①①口 |----|
口口口口 |②---|
口口口口 |----|
4
口口口口 |①---|
口口口口 |----|
口②②口 |②---|
口①①口 |----|
5
口口口口 |①---|
①②③④ |②---|
口口口口 |③---|
口口口口 |④---|
6
口口①口 |①---|
口口②口 |----|
口口口口 |②---|
口口口口 |----|
7
口口口口 |①---|
口口口口 |----|
③②①口 |②---|
口口口口 |③---|
8
口口口口 |①---|
口①口口 |----|
口②口口 |②---|
口口口口 |----|
9
口口口口 |①---|
口口口口 |----|
口口③口 |②---|
口①②口 |③---|
10
口口口口 |①---|
口口口① |----|
口口口② |②---|
口口口口 |----|
11
口口口口 |①---|
口口口口 |----|
口口口口 |②---|
口③②① |③---|
12
口口口口 |①---|
口口口口 |②---|
①②④③ |③---|
口口口口 |④---|
13
口②②口 |①---|
口①①口 |----|
口口口口 |②---|
口口口口 |----|
14
口口口口 |①---|
①口口口 |----|
口②口口 |②---|
口口口口 |----|
15
口口口口 |①---|
口口①③ |----|
口口口② |②---|
口口口口 |③---|
16
口口口① |①---|
口口②口 |----|
口口口口 |②---|
口口口口 |----|
17
口①口口 |①---|
②口口口 |----|
③口口口 |②---|
口口口口 |③---|
18
口口口口 |①---|
口口口口 |----|
口②口口 |②---|
①口口口 |----|
19
口口口口 |①---|
口口口③ |----|
口口口② |②---|
口口①口 |③---|
20
③④②① |①---|
口口口口 |②---|
口口口口 |③---|
口口口口 |④---|
21
口口口口 |①---|
口①①口 |----|
口口口口 |②---|
口②②口 |----|
22
口口口口 |①---|
口②②口 |----|
①口口口 |②---|
口口口口 |----|
23
口口口口 |①---|
口②②口 |----|
口口口① |②---|
口口口口 |----|
24
口口口口 |①---|
口②②口 |----|
①口口口 |②---|
口口口口 |----|
25
口①①口 |①---|
口②②口 |②---|
口③③口 |③---|
口④④口 |④---|
26
口口口口 |①---|
口②②口 |----|
口口口① |②---|
口口口口 |----|
27
口口口口 |①---|
口②②口 |----|
①口口口 |②---|
口口口口 |----|
28
口口口口 |①---|
口②②口 |----|
口口口① |②---|
口口口口 |----|
29
口④④口 |①---|
口③③口 |②---|
口②②口 |③---|
口①①口 |④---|
30
口口口口 |①---|
①④口口 |②---|
②③口口 |③---|
口口口口 |④---|
31
口口口口 |①---|
口口①口 |②---|
口口②口 |③---|
口口③口 |----|
32
口口口口 |①---|
口②④口 |②---|
口①③口 |③---|
口口口口 |④---|
33
口口①口 |①---|
口②口口 |②---|
口口③口 |③---|
口口口口 |----|
34
口口口口 |①---|
口口②① |②---|
④③口口 |③---|
口口口口 |④---|
35
口口口口 |①---|
①②口口 |②---|
口口③口 |③---|
口口口口 |----|
36
口口口口 |①---|
口口口口 |----|
②口口② |②---|
口①①口 |----|
37
口口口口 |①---|
口①①口 |----|
口口口口 |----|
口口口口 |----|
38
口口口口 |①---|
②口口② |----|
口口口口 |②---|
口①①口 |----|
39
口口①口 |①---|
口②口口 |②---|
口口③口 |③---|
口口口口 |----|
40
口口口口 |①---|
口口③口 |②---|
口②口口 |③---|
①口口口 |----|
41
口①①口 |①---|
②口口② |②---|
口③③口 |③---|
口口口口 |----|
42
口口口口 |①---|
②口口② |----|
口口口口 |②---|
口①①口 |----|
43
口口①口 |①---|
口②口口 |②---|
口口③口 |③---|
口口口口 |----|
44
口口④口 |①---|
口口③口 |②---|
口②口口 |③---|
口①口口 |④---|
45
口口口口 |①---|
①①②② |②---|
口③③口 |③---|
口口口口 |----|
46
口口口口 |①---|
②口口② |----|
口口口口 |②---|
口①①口 |----|
47
口口①口 |①---|
口②口口 |②---|
口口③口 |③---|
口口口口 |----|
48
口口口口 |①---|
口口③口 |②---|
口②口口 |③---|
①口口口 |----|
49
口①①口 |①---|
口②②口 |②---|
口③③口 |③---|
口口口口 |----|
50
口口口口 |①---|
②口口② |----|
口口口口 |②---|
口①①口 |----|
51
口口①口 |①---|
口②口口 |②---|
口口③口 |③---|
口口口口 |----|
52
口①口口 |①---|
口②口口 |②---|
口口③口 |③---|
口口④口 |④---|
53
③口口③ |①---|
②口口② |②---|
①口口① |③---|
口口口口 |----|
54
口口口口 |①---|
①②③④ |②---|
口口口口 |③---|
口口口口 |④---|
55
口口口口 |①---|
口口口口 |②---|
口口④① |③---|
口口③② |④---|
56
口口口口 |①---|
④③②① |②---|
口口口口 |③---|
口口口口 |④---|
57
口口口口 |①---|
口口口口 |②---|
①④口口 |③---|
②③口口 |④---|
58
口口口口 |①---|
①②③④ |②---|
口口口口 |③---|
口口口口 |④---|
59
口口口口 |①---|
口口口口 |②---|
口口④① |③---|
口口③② |④---|
60
口口②口 |①---|
口①口③ |②---|
口口④口 |③---|
口口口口 |④---|
61
②口口② |①---|
口③③口 |----|
口③③口 |②---|
①口口① |③---|

不确定度: 0

最終更新:2012年11月06日 22:09