Diver

BASIC

Level: 3
BPM: 149
Notes: 204

1
口口口口 |----|
口口口口 |----|
口口口口 |----|
口口口口 |----|
2
口口口口 |①---|
①②③④ |②---|
口口口口 |③---|
口口口口 |④---|
3
口口口口 |①---|
口口口口 |②---|
④③②① |③---|
口口口口 |④---|
4
口④口口 |①---|
口③口口 |②---|
口②口口 |③---|
口①口口 |④---|
5
口口①口 |①---|
口口②口 |②---|
口口③口 |③---|
口口④口 |④---|
6
口口口口 |①---|
口口口口 |②---|
④③②① |③---|
口口口口 |④---|
7
口口口口 |①---|
①②③④ |②---|
口口口口 |③---|
口口口口 |④---|
8
口口①口 |①---|
口口②口 |②---|
口口③口 |③---|
口口④口 |④---|
9
口④口口 |①---|
口③口口 |②---|
口②口口 |③---|
口①口口 |④---|
10
①口②口 |①---|
口口②口 |----|
口口口口 |②---|
口口口口 |----|
11
口②口① |①---|
口②口口 |----|
口口口口 |②---|
口口口口 |----|
12
口口口口 |①---|
口口口口 |----|
①口②口 |②---|
口口②口 |----|
13
口口口口 |①---|
口口口口 |----|
口②口① |②---|
口②口口 |----|
14
口口口口 |①---|
口口口口 |----|
口口②口 |②---|
①口②口 |----|
15
口口口口 |①---|
口口口口 |----|
口②口口 |②---|
口②口① |----|
16
口口②口 |①---|
①口②口 |----|
口口口口 |②---|
口口口口 |----|
17
口②口口 |①---|
口②口① |----|
口口口口 |②---|
口口口口 |----|
18
口口口口 |①---|
口口③口 |----|
①①②口 |②---|
口口口口 |③---|
19
口②①① |①---|
口③口口 |----|
口口口口 |②---|
口口口口 |③---|
20
①口口口 |①---|
①②③口 |----|
口口口口 |②---|
口口口口 |③---|
21
口③②① |①---|
口口口① |----|
口口口口 |②---|
口口口口 |③---|
22
口口口口 |①---|
①①②口 |----|
口口③口 |②---|
口口口口 |③---|
23
口口口口 |①---|
口口口口 |----|
口③口口 |②---|
口②①① |③---|
24
口口口口 |①---|
口①①口 |----|
口口口口 |----|
口口口口 |----|
25
①口口① |①---|
口口口口 |----|
口口口口 |----|
口口口口 |----|
26
口口口口 |①---|
①②③口 |②---|
口口口口 |③---|
口口口口 |----|
27
口口口口 |①---|
口口口口 |②---|
口③②① |③---|
口口口口 |----|
28
口①口口 |①---|
口②口口 |②---|
口③口口 |③---|
口口口口 |----|
29
口口口口 |①---|
口口③口 |②---|
口口②口 |③---|
口口①口 |----|
30
口①口口 |①---|
口①②② |----|
口口口口 |②---|
口口口口 |----|
31
口口口口 |①---|
口口口口 |----|
②②①口 |②---|
口口①口 |----|
32
口口口口 |①---|
口①①口 |----|
口口口口 |----|
口口口口 |----|
33
口口口口 |①---|
口口口口 |----|
口①①口 |----|
口口口口 |----|
34
口口口口 |①---|
口③②① |②---|
口口口口 |③---|
口口口口 |----|
35
口口口口 |①---|
口口口口 |②---|
①②③口 |③---|
口口口口 |----|
36
口口①口 |①---|
口口②口 |②---|
口口③口 |③---|
口口口口 |----|
37
口口口口 |①---|
口③口口 |②---|
口②口口 |③---|
口①口口 |----|
38
口口①口 |①---|
②②①口 |----|
口口口口 |②---|
口口口口 |----|
39
口口口口 |①---|
口口口口 |----|
口①②② |②---|
口①口口 |----|
40
口口口口 |①---|
口①①口 |----|
口口口口 |----|
口口口口 |----|
41
②口口口 |①---|
口③口口 |----|
口①①口 |②---|
口口口口 |③---|
42
口口①① |①---|
口口②口 |----|
口口②口 |②---|
口口口口 |----|
43
口口口② |①---|
口口③口 |----|
口口口口 |②---|
口①①口 |③---|
44
①①口口 |①---|
口②口口 |----|
口②口口 |②---|
口口口口 |----|
45
口口口口 |①---|
口口口口 |----|
③口口口 |②---|
②①①口 |③---|
46
口口④口 |①---|
口②③口 |②---|
口①口口 |③---|
口口口口 |④---|
47
②口口① |①---|
③口口① |----|
口口口口 |②---|
口口口口 |③---|
48
口口口口 |①---|
口①口口 |②---|
口②③口 |③---|
口口④口 |④---|
49
口口口② |①---|
口口③口 |----|
口口口① |②---|
口口口① |③---|
50
①①口口 |①---|
口②口口 |----|
口②口口 |②---|
口口口口 |----|
51
②口口口 |①---|
口③口口 |----|
口口口口 |②---|
口①①口 |③---|
52
口口①① |①---|
口口②口 |----|
口口②口 |②---|
口口口口 |----|
53
口口口口 |①---|
口口口口 |----|
口口口③ |②---|
口①①② |③---|
54
口口口口 |①---|
④③②① |②---|
口口口口 |③---|
口口口口 |④---|
55
口口口口 |①---|
口口口口 |②---|
①口口口 |③---|
②③④口 |④---|
56
口口口口 |①---|
口②②口 |----|
口①①口 |②---|
口口口口 |----|
57
口①①口 |①---|
口口②口 |----|
口③口口 |②---|
口口口口 |③---|
58
③口口③ |①---|
②口口② |--②-|
①口口① |----|
口口口口 |③---|


不确定度: 0

最終更新:2012年11月11日 22:59