Diver

ADVANCED

Level: 6
BPM: 149
Notes: 377

1
口口口口 |----|
口口口口 |----|
口口口口 |----|
①口口① |①---|
2
口口口⑤ |①-②-|
①口④口 |③-④-|
③口②口 |⑤---|
⑦⑥⑥⑦ |⑥-⑦-|
3
口口口口 |--①-|
口④口① |②-③-|
口②口③ |④---|
⑤口口⑤ |⑤---|
4
口⑤口⑤ |①-②-|
①口④口 |③-④-|
③口②口 |⑤---|
⑦⑥⑥⑦ |⑥-⑦-|
5
口⑥口⑤ |--①-|
口口④① |②-③④|
口②口③ |⑤-⑥-|
⑦口口⑦ |⑦---|
6
口⑤口⑤ |①-②-|
①口④口 |③-④-|
③口②口 |⑤---|
⑦⑥⑥⑦ |⑥-⑦-|
7
口口口口 |--①-|
口④口① |②-③-|
口②口③ |④---|
⑤口口⑤ |⑤---|
8
口⑤口⑤ |①-②-|
①口④口 |③-④-|
③口②口 |⑤---|
⑦⑥⑥⑦ |⑥-⑦-|
9
口口口口 |--①-|
⑦④口① |②-③-|
口②口③ |④-⑤-|
⑤口⑥口 |⑥-⑦-|
10
口口口口 |--①-|
口⑤①② |②---|
③⑤口④ |③---|
口口口口 |④-⑤-|
11
口口口口 |--①-|
②口①口 |--②-|
②口①口
口口口口

口口口口
口口口③
口④⑤③ |--③-|
口口口口 |④-⑤-|
12
口口口口 |----|
口口口口 |----|
口口口口 |----|
口口口口 |----|
13
口口口口 |----|
口口口口 |----|
口口口口 |--①-|
①②③口 |②-③-|
14
⑦④口⑥ |--①-|
⑦口⑤口 |②-③-|
③口②① |④-⑤-|
口口口口 |⑥-⑦-|
15
口口口口 |--①-|
口⑦⑥口 |②-③-|
口④⑤① |④-⑤-|
口②③① |⑥-⑦-|
16
口口口口 |----|
口口口口 |①-②-|
口①②口 |----|
口口口口 |----|
17
④口④口 |----|
口③口口 |----|
口②口口 |①-②-|
口①口口 |③-④-|
18
口①口② |--①-|
口口③口 |②---|
口口④口 |③-④-|
口⑥⑤⑥ |⑤-⑥-|
19
口④口④ |--①-|
②③⑤口 |②-③-|
口①⑥口 |④-⑤-|
口口⑦口 |⑥-⑦-|
20
口口口口 |----|
口口口口 |----|
口口口口 |----|
口口口口 |----|
21
口④口④ |----|
口口③口 |----|
口口②口 |①-②-|
口口①口 |③-④-|
22
②口①口 |--①-|
口③口口 |②---|
口④口口 |③-④-|
⑥⑤⑥口 |⑤-⑥-|
23
④口④口 |--①-|
口⑤③② |②-③-|
口⑥①口 |④-⑤-|
口⑦口口 |⑥-⑦-|
24
口口口口 |----|
口口口口 |----|
口口口口 |----|
口口口口 |----|
25
口口口口 |----|
口口口口 |----|
口口口口 |----|
口口口口 |----|
26
④④口口 |①-②-|
③③口⑥ |③-④-|
②②⑦口 |⑤---|
①①口⑤ |⑥-⑦-|
27
口口①口 |--①-|
④④口口 |②-③-|
③③口口 |④---|
②②口⑤ |--⑤-|
28
⑦口口③ |①-②-|
⑥口口② |③-④-|
⑤口口① |⑤-⑥-|
④⑧⑧口 |⑦-⑧-|
29
口②②口 |--①-|
口①①口 |②---|
口口口口
口口口口

③口口③
口口⑥⑥
口⑤口口 |③-④-|
④口口口 |⑤-⑥-|
30
口口口口 |--①-|
③③⑥⑥ |②-③-|
口⑤②口 |--④-|
④口口① |⑤-⑥-|
31
口口③③ |--①-|
口②口口 |②-③-|
口口①口
口口口口

④④口口
口口口口
⑤⑤⑤⑤ |----|
口口口口 |④-⑤-|
32
口口口口 |----|
口口口口 |----|
口口口口 |----|
口口口口 |----|
33
口口④④ |----|
口口③③ |----|
口口②② |①-②-|
口口①① |③-④-|
34
⑥④口口 |--①-|
②口口口 |②-③-|
⑤③口口 |④-⑤-|
①⑦口口 |⑥-⑦-|
35
口口①口 |--①-|
口口④④ |②-③-|
口口③③ |④---|
⑤口②② |--⑤-|
36
③口口⑦ |①-②-|
②口口⑥ |③-④-|
①口口⑤ |⑤-⑥-|
口⑧⑧④ |⑦-⑧-|
37
口②②口 |--①-|
③①①③ |②-③-|
口口口口 |--④-|
④口口④ |----|
38
④⑤口③ |①---|
②口口口 |②-③-|
口口口口 |----|
口口①口 |④-⑤-|
39
口口口口 |----|
口口口口 |①-②-|
口口口① |----|
②口④③ |③-④-|
40
口口口口 |----|
口口口口 |----|
口口口口 |----|
口口口口 |----|
41
①口口口 |----|
口②口口 |----|
③口口口 |①-②-|
口口口④ |③-④-|
42
口①①① |①---|
口口②口 |----|
口口②口 |②---|
口口口口 |----|
43
口口口口 |①---|
口口口口 |----|
口口口口
①①①口

口口口口
口口口④
口口③口 |②-③-|
⑤口口② |④-⑤-|
44
①①①口 |①---|
口②口口 |----|
口②口口 |②---|
口口口口 |----|
45
口口口口 |①---|
口口口口 |----|
口口口口
口①①①

④④口口
③③口口
②②口口 |②-③-|
口口口⑤ |④-⑤-|
46
⑦口③口 |①---|
口⑥②① |②-③-|
口⑤口口 |④-⑤-|
口④口口 |⑥-⑦-|
47
口口口口 |①-②-|
①口⑤⑤ |----|
②口④④ |③-④-|
口口③③ |⑤---|
48
②②③③ |①---|
口口口口 |②---|
①①④④ |③---|
⑤口口⑤ |④-⑤-|
49
③口口口 |①-②-|
②②②② |----|
口④口口 |③-④-|
⑤①①⑥ |⑤-⑥-|
50
口①①① |①---|
口口②口 |----|
口口②口 |②---|
口口口口 |----|
51
口口口口 |①---|
口口口口 |--②-|
口口口口
①①①②

口口口口
口口口④
口口③口 |③-④-|
⑤口口口 |⑤---|
52
①①①口 |①---|
口②口口 |----|
口②口口 |②---|
口口口口 |----|
53
④④口口 |①---|
③③口口 |----|
②②口口 |②-③-|
口①①① |④---|
54
⑤口④口 |①---|
口口口② |②---|
口口③口 |③---|
口口口① |④-⑤-|
55
口口⑦⑦ |①-②-|
①口⑥⑥ |--③-|
②口⑤⑤ |④-⑤-|
口④③口 |⑥-⑦-|
56
口口口口 |----|
口口口口 |----|
口口口口 |----|
口口口口 |----|
57
⑤⑤⑤⑤ |----|
④③④③ |①-②-|
口②口口 |--③-|
口口①口 |④-⑤-|
58
口口口口 |①---|
③③③③ |--②-|
②②②② |----|
①①①① |③---|


不确定度: 0

最終更新:2012年11月11日 22:57