Diver

EXTREME

Level: 8
BPM: 149
Notes: 560

1
口口口口 |----|
口口口口 |----|
口口口口 |----|
①口口① |①---|
2
口⑤①⑤ |①-②-|
①口④口 |③-④-|
③口②③ |⑤---|
⑦⑥⑥⑦ |⑥-⑦-|
3
①口口④ |--①-|
口④口① |②-③-|
口②口③ |④---|
⑤口口⑤ |⑤---|
4
口⑤①⑤ |①-②-|
①口④口 |③-④-|
③口②③ |⑤---|
⑦⑥⑥⑦ |⑥-⑦-|
5
①⑥口⑤ |--①-|
口口④① |②-③④|
口②口③ |⑤-⑥-|
⑦口口⑦ |⑦---|
6
口⑤①⑤ |①-②-|
①口④口 |③-④-|
③口②③ |⑤---|
⑦⑥⑥⑦ |⑥-⑦-|
7
①口口④ |--①-|
口④口① |②-③-|
口②口③ |④---|
⑤口口⑤ |⑤---|
8
口⑤①⑤ |①-②-|
①口④口 |③-④-|
③口②③ |⑤---|
⑦⑥⑥⑦ |⑥-⑦-|
9
①口口④ |--①-|
⑦④⑦① |②-③-|
⑥②⑥③ |④-⑤-|
⑤口⑤口 |⑥-⑦-|
10
口⑤①口 |--①-|
口②口② |②---|
口③口③ |③---|
口④口④ |④-⑤-|
11
口口口口 |--①-|
①④①④ |--②-|
②⑤②⑤ |--③-|
③口③口 |④-⑤-|
12
⑥口⑤④ |①-②-|
口⑦③口 |③-④-|
口口②口 |⑤---|
口①口口 |⑥-⑦-|
13
口④口⑤ |①-②-|
⑥口⑦口 |③-④-|
⑧①⑧② |⑤-⑥-|
⑦③⑥口 |⑦-⑧-|
14
③⑥⑥⑤ |--①-|
⑦②口④ |②-③-|
口①口③ |④-⑤-|
口②⑦口 |⑥-⑦-|
15
⑤⑧⑧⑦ |①-②-|
口③①⑥ |③-④-|
②④②⑤ |⑤-⑥-|
①③口口 |⑦-⑧-|
16
口口口③ |----|
口⑤④口 |①-②-|
①②②① |③---|
②①①② |④-⑤-|
17
口口口口 |①-②-|
①口口口 |③-④-|
口②口③
口④口口

口口⑧口
⑦口⑦口
⑥口⑥口 |⑤-⑥-|
⑤口⑤口 |⑦-⑧-|
18
口③口口 |--①-|
④①④① |②---|
⑤②⑤② |③-④-|
口口⑥口 |⑤-⑥-|
19
④③④③ |--①-|
⑤②⑤② |②-③-|
⑥①⑥① |④-⑤-|
口⑦口口 |⑥-⑦-|
20
口④口口 |①---|
口口口③ |②---|
口②口口 |③---|
口口口① |④---|
21
口口口① |①-②-|
⑤④⑥口 |③-④-|
⑦⑧⑦③ |⑤-⑥-|
⑥②⑤口 |⑦-⑧-|
22
②⑤⑤④ |--①-|
⑥①⑦③ |②-③-|
口口口② |④-⑤-|
⑦①⑥口 |⑥-⑦-|
23
④⑦⑦⑥ |①-②-|
口②口⑤ |③-④-|
①③①④ |⑤-⑥-|
⑧②口⑧ |⑦-⑧-|
24
口口口口 |①---|
口口口口 |----|
口①①口 |----|
口②口口 |②---|
25
口⑥⑦口 |①-②-|
⑤口口⑧ |③-④-|
④③②① |⑤-⑥-|
口口口口 |⑦-⑧-|
26
口⑦口口 |①-②-|
口⑥③⑥ |③-④-|
②④②④ |⑤---|
①⑤①⑤ |⑥-⑦-|
27
口口口口 |--①-|
①⑤①口 |②-③-|
②④②④ |④---|
口口③⑤ |--⑤-|
28
⑦⑧⑧⑤ |①-②-|
⑥口③① |③-④-|
⑤④②④ |⑤-⑥-|
口①③口 |⑦-⑧-|
29
口口口口 |①-②-|
口①口口 |③---|
口口口②
口③③口

口口口⑤
口⑥口⑥
⑦④④⑦ |④-⑤-|
口口口口 |⑥-⑦-|
30
①口口口 |--①-|
②⑥②⑥ |②-③-|
⑤口⑤口 |--④-|
③④口③ |⑤-⑥-|
31
⑤口⑤口 |--①-|
③⑤③⑤ |②-③-|
④②④② |----|
口口①口 |④-⑤-|
32
口口口口 |①-②-|
口口口口 |③-④-|
⑤③⑥① |--⑤-|
④口②口 |--⑥-|
33
⑤③⑤② |①-②-|
⑥④⑥① |③-④-|
⑦口⑦口 |⑤-⑥-|
⑧口⑧口 |⑦-⑧-|
34
口③⑦口 |--①-|
④②④② |②-③-|
⑤①⑤① |④-⑤-|
⑥口⑥口 |⑥-⑦-|
35
口口口口 |--①-|
⑤①口① |②-③-|
④②④② |④---|
口③⑤口 |--⑤-|
36
⑤⑧⑧⑦ |①-②-|
口②①⑥ |③-④-|
④③④⑤ |⑤-⑥-|
①②口口 |⑦-⑧-|
37
口④④口 |--①-|
③③口口 |②-③-|
口口②② |--④-|
①①口口 |----|
38
④口口④ |①---|
③口④③ |②-③-|
②口②口 |----|
①口口⑤ |④-⑤-|
39
③④④③ |----|
②③口② |①-②-|
口①口① |----|
口口口口 |③-④-|
40
口口口口 |----|
口口口口 |----|
口口口口 |----|
口口口口 |----|
41
口口口口 |----|
口口口口 |----|
④①③③ |①-②-|
②③口① |③-④-|
42
①①①① |①---|
②①①② |----|
口②②口 |②---|
口口口口 |----|
43
口口口口 |①---|
口口口口 |----|
①口口①
口①①口

口口口口
口口口口
⑤②④④ |②-③-|
③④口② |④-⑤-|
44
①①①① |①---|
②①①② |----|
口②②口 |②---|
口口口口 |----|
45
口口口口 |①---|
口口口口 |----|
口口口口
①①①①

②口②口
③口③口
④口④口 |②-③-|
口口⑤口 |④-⑤-|
46
②⑥②⑥ |①---|
③⑤③⑤ |②-③-|
口①④① |④-⑤-|
口口⑦口 |⑥-⑦-|
47
口口口口 |①-②-|
口口②口 |----|
口①口①
口口口口

④⑤③口
口口口口
③⑤④口 |③-④-|
口口口口 |⑤---|
48
口口口口 |①---|
②①②③ |②---|
⑤口口⑤ |③---|
④③口④ |④-⑤-|
49
②①①② |①-②-|
口②②口 |----|
⑥③⑤⑤ |③-④-|
④⑤口③ |⑤-⑥-|
50
①①①① |①---|
口①①② |----|
口口口口 |②---|
口口口② |----|
51
口口口口 |①---|
①口口口 |--②-|
⑤②④④ |③-④-|
①④③② |⑤---|
52
①①①① |①---|
②①①② |----|
口②②口 |②---|
口口口口 |----|
53
②口②口 |①---|
③口③口 |----|
④口④口 |②-③-|
①①①① |④---|
54
②⑥②⑥ |①---|
③⑤③⑤ |②-③-|
口口④口 |④-⑤-|
口①⑦口 |⑥-⑦-|
55
口口③口 |①-②-|
口口②口 |--③-|
③①口①
口口口口

④⑥口口
⑦⑤⑦口
口⑥④口 |④-⑤-|
口口口口 |⑥-⑦-|
56
口口口口 |----|
口口口口 |----|
口口口口 |----|
口口口口 |----|
57
口口口口 |----|
①⑤①⑤ |①-②-|
②④②④ |--③-|
口口③口 |④-⑤-|
58
①①①① |①---|
口口口口 |--②-|
③③③③ |----|
②②②② |③---|


不确定度: 0

最終更新:2012年11月11日 22:56