ダンデライオン

BASIC

Level: 2
BPM: 128-152
Notes: 170

BPM: 122.5
1
口口口口 |----|
口口口口 |----|
口口口口 |----|
口口口口 |----|

BPM: 128
2
口口口口 |①---|
口口口口 |----|
口口②口 |②---|
口①口口 |----|

BPM: 130-140
3
口口口口 |①---|
口口口口 |----|
口②口口 |②---|
口口①口 |----|
4
口②口口 |①---|
口口①口 |----|
口口口口 |②---|
口口口口 |----|

BPM: 145-159
5
口口②口 |①---|
口①口口 |----|
口口口口 |②---|
口口口口 |----|

BPM: 150-161飘忽不定至曲终
6
口①口口 |①---|
口口口口 |----|
口口口口 |----|
口口口口 |----|
7
口口口口 |①---|
口①口口 |----|
口口口口 |②---|
口②口口 |----|
8
口口口口 |①---|
口口口口 |----|
口口口口 |----|
口口①口 |----|
9
口口②口 |①---|
口口①口 |----|
口口口口 |②---|
口口口口 |----|
10
口①口口 |①---|
口口②口 |----|
口口口口 |②---|
口口口口 |----|
11
口口口口 |①---|
口口口口 |----|
口①口口 |②---|
口口②口 |----|
12
口口口口 |①---|
口口口口 |----|
口口②口 |②---|
口①口口 |----|
13
口口②口 |①---|
口①口口 |----|
口口口口 |②---|
口口口口 |----|
14
①口口① |①---|
口口口口 |----|
口口口口 |----|
口口口口 |----|
15
口①口② |①---|
口口口口 |----|
口口口口 |②---|
口口口口 |----|
16
①口口口 |①---|
②口口口 |②---|
③口口口 |③---|
口口口口 |----|
17
口口口口 |①---|
口口口口 |----|
口口口口 |②---|
口①口② |----|
18
口口口口 |①---|
③口口口 |②---|
②口口口 |③---|
①口口口 |----|
19
②口①口 |①---|
口口口口 |----|
口口口口 |②---|
口口口口 |----|
20
口口口① |①---|
口口口② |②---|
口口口③ |③---|
口口口口 |----|
21
口口口口 |①---|
口口口口 |----|
口口口口 |②---|
②口①口 |----|
22
口口口口 |①---|
口口口③ |②---|
口口口② |③---|
口口口① |----|
23
口①①口 |①---|
口口口口 |----|
口口口口 |----|
口口口口 |----|
24
口口口口 |①---|
口①①口 |----|
口口口口 |----|
口口口口 |----|
25
④口口口 |①---|
③口口口 |②---|
②①口口 |③---|
口口口口 |④---|
26
口①口口 |①---|
口口口口 |----|
口口口口 |----|
口口口口 |----|
27
口①①口 |①---|
口口口口 |----|
口口口口 |----|
口口口口 |----|
28
口口口口 |①---|
口①①口 |----|
口口口口 |----|
口口口口 |----|
29
口口口④ |①---|
口口口③ |②---|
口口①② |③---|
口口口口 |④---|
30
口口①口 |①---|
口②②口 |②---|
口④口口 |③---|
口③③口 |④---|
31
口口口口 |①---|
①口口② |----|
口口口口 |②---|
口口口口 |----|
32
口③③口 |①---|
口②②口 |②---|
口口①口 |③---|
口口口口 |----|
33
口口口口 |①---|
①口口口 |----|
口②口口 |②---|
口口口口 |----|
34
口口口口 |①---|
口口口① |②---|
口口②口 |③---|
口③口口 |----|
35
口口口口 |①---|
口口口口 |----|
②①①② |②---|
口口口口 |----|
36
口口口口 |①---|
②口口② |----|
口①①口 |②---|
口口口口 |----|
37
①②③④ |①---|
口口口口 |②---|
口口口口 |③---|
口口口口 |④---|
38
口口口口 |①---|
口①①口 |②---|
口②②口 |③---|
口③③口 |----|
39
口口口口 |----|
口口口口 |----|
口口口口 |----|
口口口口 |----|
40
②口①口 |①---|
口口口口 |----|
口口口口 |②---|
口口口口 |----|
41
口口口① |①---|
口口口② |②---|
口口口③ |③---|
口口口口 |----|
42
口口口口 |①---|
口口口口 |----|
口口口口 |②---|
②口①口 |----|
43
口口口口 |①---|
口口口③ |②---|
口口口② |③---|
口口口① |----|
44
口①口② |①---|
口口口口 |----|
口口口口 |②---|
口口口口 |----|
45
①口口口 |①---|
②口口口 |②---|
③口口口 |③---|
口口口口 |----|
46
口口口口 |①---|
口口口口 |----|
口口口口 |②---|
口①口② |----|
47
口口口口 |①---|
③口口口 |②---|
②口口口 |③---|
①口口口 |----|
48
口①①口 |①---|
口口口口 |----|
口口口口 |----|
口口口口 |----|
49
口口口口 |①---|
口①①口 |----|
口口口口 |----|
口口口口 |----|
50
口口口④ |①---|
口口口③ |②---|
口口①② |③---|
口口口口 |④---|
51
口口①口 |①---|
口口口口 |----|
口口口口 |----|
口口口口 |----|
52
口①①口 |①---|
口口口口 |----|
口口口口 |----|
口口口口 |----|
53
口口口口 |①---|
口①①口 |----|
口口口口 |----|
口口口口 |----|
54
④口口口 |①---|
③口口口 |②---|
②①口口 |③---|
口口口口 |④---|
55
口①口口 |①---|
口②②口 |②---|
口口④口 |③---|
口③③口 |④---|
56
口口口口 |①---|
②口口① |----|
口口口口 |②---|
口口口口 |----|
57
口③③口 |①---|
口②②口 |②---|
口①口口 |③---|
口口口口 |----|
58
口口口口 |①---|
口口口① |----|
口口②口 |②---|
口口口口 |----|
59
口口口口 |①---|
①口口口 |②---|
口②口口 |③---|
口口③口 |----|
60
口口口口 |①---|
口口口口 |----|
②①①② |②---|
口口口口 |----|
61
口口口口 |①---|
②口口② |----|
口①①口 |②---|
口口口口 |----|
62
④③②① |①---|
口口口口 |②---|
口口口口 |③---|
口口口口 |④---|
63
口口口口 |①---|
口①①口 |②---|
口②②口 |③---|
口③③口 |----|


不确定度: 0

最終更新:2012年11月11日 22:56