ダンデライオン
EXTREME
Level: 8
BPM: 128-152
Notes: 542
BPM: 122.5
1
口口口口 |----|
口口口口 |----|
口①口口 |----|
口口②口 |--①②|
BPM: 128
2
口⑥②⑥ |①---|
口③⑥⑤ |②-③-|
口⑥④⑥ |④-⑤-|
①口口① |⑥---|
BPM: 130-140
3
口口口口 |①-②-|
⑤①⑤口 |③-④-|
②⑤④口 |⑤---|
⑤③⑤口 |----|
4
①口②① |①---|
口③口口 |②-③-|
口口口口
口口口口
口⑥口⑥
口口⑥⑤
口⑥④⑥ |④-⑤-|
口口口口 |⑥---|
BPM: 145-159
5
口口口口 |①-②-|
⑤①⑤口 |③-④-|
②⑤④口 |⑤---|
⑤③⑤口 |----|
BPM: 150-161飘忽不定至曲终
6
①口口口 |①②③④|
⑤②口口 |⑤⑥⑦-|
口⑥③口
口口⑦④
⑫⑧口⑪
口⑬⑨口
口口口⑩ |⑧⑨⑩-|
口口口口 |⑪-⑫⑬|
7
口⑥口⑨ |①②③④|
③口⑦口 |⑤-⑥⑦|
口④①⑧ |⑧-⑨-|
⑩口⑤② |⑩---|
8
①口口口 |①②③④|
⑤②口口 |⑤⑥⑦-|
口⑥③口
口口⑦④
口⑧口⑪
口⑬⑨口
口口⑫⑩ |⑧⑨⑩-|
口口口口 |⑪-⑫⑬|
9
①②口⑤ |①---|
②口口③ |②-③-|
口口口口 |④---|
⑤③口④ |⑤---|
10
①口口口 |①②③④|
⑤②口口 |⑤⑥⑦-|
口⑥③口
口口⑦④
⑫⑧口⑪
口⑬⑨口
口口口⑩ |⑧⑨⑩-|
口口口口 |⑪-⑫⑬|
11
口⑥口⑨ |①②③④|
③口⑦口 |⑤-⑥⑦|
口④①⑧ |⑧-⑨-|
⑩口⑤② |⑩---|
12
①口口口 |①②③④|
⑤②口口 |⑤⑥⑦-|
口⑥③口
口口⑦④
口⑧口⑪
口⑬⑨口
口口⑫⑩ |⑧⑨⑩-|
口口口口 |⑪-⑫⑬|
13
①②口⑤ |①---|
②口口③ |②-③-|
口口口口 |④---|
⑤③口④ |⑤---|
14
口口口口 |①-②-|
口②②口 |----|
口①①口
口口口口
口口口口
口口⑤口
④口口③ |--③-|
⑤③④口 |④-⑤-|
15
口①②③ |①-②-|
口口⑧④ |③-④-|
口⑦口⑤ |⑤-⑥-|
口口口⑥ |--⑦⑧|
16
③口口口 |①-②-|
④②口口 |③-④-|
口口①口
口口口口
口口口口
口⑦口口
⑤口口口 |⑤-⑥-|
⑥口口⑦ |--⑦-|
17
口⑦口口 |①-②-|
⑧口⑥② |③-④-|
口③①⑤ |⑤-⑥-|
口②④口 |⑦-⑧-|
18
②口④口 |①---|
⑤③口口 |②-③-|
④①②口 |④---|
口口⑤口 |--⑤-|
19
口①口③ |①-②-|
口⑥②④ |--③-|
口口口口 |④--⑤|
口口口⑤ |--⑥-|
20
③口口口 |①-②-|
④⑦②口 |③-④-|
⑤②①口 |⑤-⑥-|
⑥口口⑦ |--⑦-|
21
口⑥口口 |①---|
⑦口⑤口 |②-③-|
口②①④ |④-⑤-|
口口③口 |⑥-⑦-|
22
③口⑤② |①-②-|
口④⑥口 |③-④-|
⑤①③⑦ |⑤---|
口口口口 |⑥-⑦-|
23
口⑥口口 |①-②-|
⑦⑤口③ |③-④-|
口②④口 |⑤---|
口③①⑤ |⑥-⑦-|
24
③口⑤口 |①-②-|
口④②口 |③-④-|
⑤①③⑥ |⑤---|
口口⑦口 |⑥-⑦-|
25
口⑧⑥口 |①-②-|
口⑤②③ |③--④|
⑦①④口 |⑤-⑥-|
口③口口 |⑦-⑧-|
26
②口口口 |①-②-|
①③口口 |----|
口口④口 |----|
口口口③ |③-④-|
27
口②口② |①---|
口口口① |②---|
口口口口
口①口口
口口口口
口口⑤④
口③口③ |③---|
口口口口 |④-⑤-|
28
③口②口 |①-②-|
①④口口 |③---|
②口③口 |④---|
口口⑤口 |--⑤-|
29
口口口口 |①-②-|
口口②口 |③-④-|
口③④①
口口口口
口口口口
口⑤⑧口
口口口口 |⑤-⑥-|
口⑦⑥口 |⑦-⑧-|
30
口口口口 |①---|
①口口① |②---|
②口口②
①口口①
③③③③
口口口口
口口⑤口 |③---|
口口口④ |④-⑤-|
31
口口口口 |①---|
口①③② |②---|
口④口④ |③--④|
口②⑤口 |--⑤-|
32
④口②口 |①---|
口③⑥口 |②-③-|
②口④⑤ |④---|
口①口① |⑤-⑥-|
33
口①③② |①---|
口④口④ |②---|
口②口口 |③---|
口口口口 |④---|
34
口口口口 |①--②|
口口③口 |--③-|
口②①②
③口口口
⑤口口口
④⑥口口
口口⑤口 |④---|
口口④口 |⑤-⑥-|
35
口③①口 |①---|
④⑤④口 |②-③-|
①②⑥口 |④---|
口口口⑤ |⑤-⑥-|
36
口口口口 |①---|
口口②① |②-③-|
口口口口
口①③口
口口口口
口口口口
口④⑥④ |④---|
口⑤口口 |⑤-⑥-|
37
口③②口 |①-②-|
口①口口 |--③-|
口口口口
口口口口
口口⑦口
④口⑥口
⑦⑤口口 |④-⑤-|
口口口口 |⑥-⑦-|
38
口口口口 |①---|
口①口③ |②---|
口口②口 |③---|
口③口① |----|
39
口①口口 |①②③-|
口④②口 |④⑤⑥-|
口口⑤③
口口口⑥
⑩口口口
⑦口⑪口
口⑧口口 |⑦⑧⑨-|
⑪口⑨口 |⑩-⑪-|
40
口①②③ |①-②-|
口口⑧④ |③-④-|
口⑦口⑤ |⑤-⑥-|
口口口⑥ |--⑦⑧|
41
③口口口 |①-②-|
④②口口 |③-④-|
口口①口
口口口口
口口口口
口⑦口口
⑤口口口 |⑤-⑥-|
⑥口口⑦ |--⑦-|
42
口⑦口口 |①-②-|
⑧口⑥② |③-④-|
口③①⑤ |⑤-⑥-|
口②④口 |⑦-⑧-|
43
②口④口 |①---|
⑤③口口 |②-③-|
④①②口 |④---|
口口⑤口 |--⑤-|
44
口①口③ |①-②-|
口口②④ |③-④-|
口口⑦⑤ |⑤-⑥-|
口口口⑥ |--⑦-|
45
③口口口 |①-②-|
④①②口 |③-④-|
口②口口
口口口口
口口口口
口⑦口口
⑤口口口 |⑤-⑥-|
⑥口口⑦ |--⑦-|
46
口⑦口口 |①-②-|
⑧口⑥② |③-④-|
口③①⑤ |⑤-⑥-|
口②④口 |⑦-⑧-|
47
③口⑤② |①-②-|
口④⑥口 |③-④-|
⑤①③⑦ |⑤---|
口口口口 |⑥-⑦-|
48
口⑥口口 |①-②-|
⑦⑤口③ |③-④-|
口②④口 |⑤---|
口③①⑤ |⑥-⑦-|
49
③口⑤口 |①-②-|
口④②口 |③-④-|
⑤①③⑥ |⑤---|
口口⑦口 |⑥-⑦-|
50
口⑥④口 |①---|
口③口② |②---|
⑤①口口 |③-④-|
口②口③ |⑤-⑥-|
51
②口口口 |①-②-|
①③口口 |----|
口口④口 |----|
口口口③ |③-④-|
52
口②口② |①---|
口口口① |②---|
口口口口
口①口口
口口口口
口口⑤④
口③口③ |③---|
口口口口 |④-⑤-|
53
②口③口 |①---|
①口口口 |②---|
③口②口 |③---|
口口④口 |--④-|
54
口口口口 |①-②-|
口口②口 |③-④-|
口③④①
口口口口
口口口口
口⑤⑧口
口口口口 |⑤-⑥-|
口⑦⑥口 |⑦-⑧-|
55
口口口口 |①---|
①口口① |②---|
②口口②
①口口①
③③③③
口口口口
口口⑤口 |③---|
口口口④ |④-⑤-|
56
口③口③ |①---|
口①④② |②--③|
口⑤口⑤ |④--⑤|
口②⑥口 |--⑥-|
57
④口②口 |①---|
口③⑥口 |②-③-|
②口④⑤ |④---|
口①口① |⑤-⑥-|
58
口①③② |①---|
口④口④ |②---|
口②口口 |③---|
口口口口 |④---|
59
口口口口 |①--②|
口口③口 |--③-|
口②①②
③口口口
⑤口口口
④⑥口口
口口⑤口 |④---|
口口④口 |⑤-⑥-|
60
口③①口 |①---|
④⑤④口 |②-③-|
①②⑥口 |④---|
口口口⑤ |⑤-⑥-|
61
口口口口 |①---|
口口②① |②-③-|
口口口口
口①③口
口口口口
口口口口
口④⑥④ |④---|
口⑤口口 |⑤-⑥-|
62
口③②口 |①-②-|
口①口口 |--③-|
口口口口
口口口口
口口⑦口
④口⑥口
口⑤口口 |④-⑤-|
口口口口 |⑥-⑦-|
63
②口口口 |①-②-|
口⑤口③ |③-④-|
①口④口 |⑤---|
口③口⑤ |----|
不确定度: 0