コネクト

ADVANCED

Level: 6
BPM: 175
Notes: 371

1
口口口口 |----|
口口口口 |----|
口口口口 |----|
口口口口 |----|
2
口口口口 |----|
口口口口 |----|
口④②口 |①-②-|
口①③口 |③-④-|
3
口①①口 |①---|
口口口② |--②-|
口口口③ |③-④-|
⑤口口④ |--⑤-|
4
③④④③ |①-②-|
②口口口 |--③-|
①口口口 |--④-|
口⑤⑤口 |--⑤-|
5
口口口① |----|
口口口② |--①-|
口口口③ |②-③-|
④口口口 |--④-|
6
口③口口 |①-②-|
②⑦④口 |③-④-|
①口⑥口 |--⑤-|
口⑤口口 |⑥-⑦-|
7
①口口① |①---|
口口口② |--②-|
口口口③ |③-④-|
⑤口口④ |--⑤-|
8
③④④③ |①-②-|
②口口口 |--③-|
①口口口 |--④-|
口⑤⑤口 |--⑤-|
9
③口口③ |----|
②口口② |----|
①口口① |--①-|
口口口口 |②-③-|
10
口口口口 |----|
口口口口 |----|
口口口口 |----|
口口口口 |----|
11
口⑤②⑤ |①---|
口口①口 |②---|
口口口④ |③-④-|
①口口③ |--⑤-|
12
③④③④ |--①-|
口口口口 |②---|
口①口口 |③---|
口②口口 |④---|
13
口口口口 |①---|
口①③① |②---|
口口②口 |③-④-|
口⑤④⑤ |--⑤-|
14
口口口口 |----|
口口口口 |----|
口口口口 |----|
口口口口 |----|
15
口⑤②⑤ |①---|
口口①口 |②---|
口口口④ |③-④-|
①口口③ |--⑤-|
16
③④③④ |--①-|
口口口口 |②---|
口①口口 |③---|
口②口口 |④---|
17
口口口口 |①---|
④①④① |②---|
口②口② |③---|
③口③口 |④---|
18
①②①② |①---|
口口口口 |----|
口口口口 |②---|
口口口口 |----|
19
口④口口 |----|
①口口口 |①---|
口口②口 |②-③-|
口口口③ |--④-|
20
口口口③ |----|
口口④口 |①-②-|
口①口⑤ |--③-|
口②口口 |④-⑤-|
21
口口口口 |----|
④口口④ |①---|
⑤③③⑤ |②-③-|
①②②口 |④-⑤-|
22
口口口口 |----|
口口口口 |----|
口②口口 |--①-|
口口口① |--②-|
23
⑤口④⑤ |①---|
①口③口 |②---|
口口口口 |③-④-|
口口②口 |--⑤-|
24
口⑤④口 |--①-|
口口口口 |②-③-|
①②②① |--④-|
口③③口 |--⑤-|
25
口口口口 |①---|
①口口② |----|
口口口口 |②---|
口口口口 |----|
26
口口口口 |①-②-|
口口口口 |③-④-|
①④⑤⑧ |⑤-⑥-|
②③⑥⑦ |⑦-⑧-|
27
口④口口 |----|
①口口口 |①---|
口口②口 |②-③-|
口口口③ |--④-|
28
口口口③ |----|
口口④④ |①-②-|
口①口口 |--③-|
口②口口 |--④-|
29
口口口口 |----|
口口口口 |①---|
④③③④ |②-③-|
①②②口 |--④-|
30
①口口① |----|
口②口口 |----|
口口口口 |--①-|
口口口口 |--②-|
31
⑤口口⑤ |①---|
口口④口 |②---|
口口口① |③-④-|
②口③口 |--⑤-|
32
口⑤口口 |--①-|
口口口口 |②-③-|
①②②① |④---|
④③③④ |⑤---|
33
口口口口 |①---|
①口口② |--②-|
③口口口 |----|
口口口口 |③---|
34
④④④口 |①---|
⑤⑤口口 |②---|
口口②口 |③---|
口①口③ |④-⑤-|
35
口口②② |①---|
口口③③ |----|
①口口口 |----|
口口口口 |②-③-|
36
口口口口 |----|
②口口口 |----|
口口②① |①---|
口①口口 |②---|
37
③③口① |①---|
口①口口 |--②-|
口口口口 |----|
口口②② |③---|
38
口口①口 |----|
口①②口 |----|
口②口口 |----|
口口口口 |①-②-|
39
口口口口 |①---|
②口口③ |--②-|
口口①口 |----|
③①口② |③---|
40
口口②口 |--①-|
口③口口 |----|
口④口口 |②---|
口①①口 |③-④-|
41
口口口口 |----|
口口口口 |----|
口口②口 |----|
口口①口 |①-②-|
42
口口口口 |----|
口口口口 |----|
②②口口 |----|
①①①口 |①-②-|
43
口口②② |①---|
①口③③ |----|
口口口口 |----|
口口口口 |②-③-|
44
口口口口 |----|
②口口口 |----|
口口②① |①---|
口①口口 |②---|
45
②②口① |①---|
口①口口 |--②-|
口口④④ |----|
口口③③ |③-④-|
46
口口口口 |----|
②口口口 |----|
口口口口 |①---|
①口口口 |②---|
47
口口口口 |①---|
口口口⑤ |②-③-|
③②口① |--④-|
口口口④ |--⑤-|
48
④④④④ |----|
口③③口 |①-②-|
①②口口 |--③-|
口口口口 |--④-|
49
口口口口 |----|
口口口口 |----|
口口口口 |----|
口口口口 |----|
50
口口口口 |①---|
口口口口 |----|
口⑤③口 |②-③-|
①②④① |④-⑤-|
51
①①①① |①---|
口口口② |--②-|
口口口③ |③-④-|
⑤口口④ |--⑤-|
52
③④④③ |①-②-|
②口口口 |--③-|
①口口口 |--④-|
⑤⑤⑤⑤ |--⑤-|
53
口口口① |----|
口口口② |--①-|
口口口③ |②-③-|
④口口口 |--④-|
54
口③口口 |①-②-|
②⑦④口 |③-④-|
①口⑥口 |--⑤-|
口⑤口口 |⑥-⑦-|
55
①口口① |①---|
口口口② |--②-|
口口口③ |③-④-|
⑤口口④ |--⑤-|
56
③④④③ |①-②-|
②口口口 |--③-|
①口口口 |--④-|
口⑤⑤口 |--⑤-|
57
③③③③ |----|
②口口② |----|
①口口① |--①-|
口口口口 |②-③-|
58
口口口口 |----|
口口口口 |----|
口④②口 |①-②-|
口①③口 |③-④-|
59
①①①① |①---|
口口口② |--②-|
口口口③ |③-④-|
⑤口口④ |--⑤-|
60
③④④③ |①-②-|
②③③口 |--③-|
①④④口 |--④-|
⑤⑤⑤⑤ |--⑤-|
61
口口口① |----|
口口口② |--①-|
口口口③ |②-③-|
④口口口 |--④-|
62
⑥③口⑥ |①-②-|
②口④口 |③-④-|
①口口口 |--⑤-|
口⑤口口 |--⑥-|
63
口②①口 |----|
①口口② |----|
口口口口 |①---|
口口口口 |②---|
64
⑤④口⑤ |①---|
口口口口 |②-③-|
口③口口 |--④-|
①②口① |--⑤-|
65
口口口口 |----|
口口口口 |----|
口口口口 |----|
口①①口 |①---|
66
口口口口 |①---|
②②②② |----|
①①①① |②---|
口口口口 |----|
67
①①①① |①---|
口口口口 |----|
口口口口 |----|
口口口口 |----|


不确定度: 0

最終更新:2012年11月11日 22:54