コネクト

EXTREME

Level: 8
BPM: 175
Notes: 570

1
口口口口 |----|
口口口口 |----|
口口口口 |----|
口口口口 |----|
2
口口口口 |----|
口③口③ |----|
①口④① |①-②-|
口口②口 |③-④-|
3
①②②① |①---|
③口口④ |--②-|
口⑤口口 |③-④-|
③口⑤④ |--⑤-|
4
③口口③ |①-②-|
口②②口 |--③-|
口口①口
口①口口

口口⑤口
⑤口口口
口口⑤口 |--④-|
④口口④ |--⑤-|
5
口①口口 |----|
口③②① |--①-|
②口口③ |②-③-|
口④口④ |--④-|
6
口④口④ |①-②-|
③⑦口⑦ |③-④-|
⑤①②⑤ |--⑤-|
口口⑥口 |⑥-⑦-|
7
②口①② |①---|
口口口口 |--②-|
口口①口
口口口口

口⑤⑤口
④口④口
口口口口 |③-④-|
口③口口 |--⑤-|
8
③口口③ |①-②-|
口②口② |--③-|
③④④③ |--④-|
⑤口①⑤ |--⑤-|
9
③③③③ |----|
②口口② |----|
口①②① |--①-|
口口①口 |②-③-|
10
口口口口 |----|
口口口口 |----|
口口④③ |----|
①②口口 |①②③④|
11
口①①口 |①---|
口口②口 |②---|
②口口口
口口口口

口⑥⑥③
口口口④
口口口口 |③-④-|
口⑤口口 |⑤-⑥-|
12
④口口④ |--①-|
⑤③口⑤ |②-③-|
⑥②口⑥ |④-⑤-|
口⑦①① |⑥-⑦-|
13
口口②口 |①---|
口口口口 |②---|
口口口口
①口口①

口④口口
口口口口
口③③口 |③-④-|
⑤口口⑤ |--⑤-|
14
口口口① |--①-|
口④③② |②-③-|
③⑤⑨⑧ |④-⑤-|
⑥⑦口口 |⑥⑦⑧⑨|
15
口①①口 |①---|
口口②口 |②---|
②口口口
口口口口

口⑥⑥③
口口口④
口口口口 |③-④-|
口⑤口口 |⑤-⑥-|
16
④口口④ |--①-|
⑤③口⑤ |②-③-|
⑥②⑦⑥ |④-⑤-|
口⑦①① |⑥-⑦-|
17
⑥①①⑤ |①---|
口⑦④口 |②-③-|
口③口口 |④-⑤-|
②口口口 |⑥-⑦-|
18
③口口② |①---|
口口口口 |----|
口口口① |②---|
②口①① |③---|
19
⑤口口口 |①---|
口⑤口④ |②---|
③①①③ |③-④-|
口②口口 |--⑤-|
20
口口口③ |----|
口口④口 |①-②-|
口①口⑤ |--③-|
②口②口 |④-⑤-|
21
口口②口 |----|
口口口③ |①---|
①口④口 |②-③-|
口⑤①⑤ |④-⑤-|
22
口口口口 |①---|
口口①口 |--②-|
口口口口
口口②口

口口口口
口口④口
③③口口 |--③-|
口口口口 |--④-|
23
口①口① |①---|
口口口口 |②---|
口口口口
②口口口

⑤⑤⑤⑤
④口口④
口口③口 |③-④-|
口口口口 |--⑤-|
24
口口口口 |--①-|
口③①口 |②-③-|
⑤口口口 |--④-|
②口④口 |--⑤-|
25
口①①① |①---|
口②②① |----|
口口②① |②---|
口口口口 |----|
26
②②②口 |①---|
口口②口 |----|
口②口口 |②---|
①③口口 |③---|
27
口口口口 |①---|
①①口口 |②---|
口口口口
口口②口

⑤口口口
口⑤口④
③口口③ |③-④-|
口口口口 |--⑤-|
28
口口③③ |----|
口口口口 |①-②-|
口①口④ |--③-|
②口②口 |--④-|
29
口口③口 |①---|
口口①④ |②---|
②口口口 |③-④-|
口⑤②⑤ |--⑤-|
30
口口口口 |①---|
口口①口 |--②-|
口口口口
口口②口

③③③③
口口⑤口
口④口口 |--③-|
口口口口 |④-⑤-|
31
⑤⑤⑤⑤ |①---|
④口口④ |②---|
口口③① |③-④-|
②①口口 |--⑤-|
32
⑤⑤⑤口 |--①-|
⑤口①口 |②-③-|
⑤口口③ |④---|
②④口口 |⑤---|
33
口口口口 |①---|
口①①③ |--②-|
口①口口 |----|
口③口② |③---|
34
③口口口 |①---|
③口②④ |----|
①口①④ |②---|
口口②口 |③-④-|
35
口口口口 |①---|
口口口口 |②---|
口①②口
口①口口

口口③口
④④口口
口口口④ |③---|
⑤⑤口口 |④-⑤-|
36
③口口① |①---|
口口③口 |②---|
口④口口 |③---|
口口②④ |④---|
37
⑤⑤④口 |①---|
③③口① |②-③-|
口口②⑤ |④---|
①①口口 |⑤---|
38
④口口① |①---|
口⑤③口 |②---|
口口口口 |③---|
口口②④ |④-⑤-|
39
口③④口 |①---|
③口口① |②-③-|
①⑤②⑤ |④---|
⑤口口口 |⑤---|
40
②口口① |①-②-|
口②④口 |③---|
④⑥口口 |④---|
⑤④③⑤ |⑤-⑥-|
41
④④③口 |①---|
⑤⑤口① |②---|
口口②④ |③---|
口口口口 |④-⑤-|
42
⑤口口① |①---|
⑤口口③ |②---|
口②口④ |③---|
口口口④ |④-⑤-|
43
口②口口 |①---|
口口①口 |②---|
口口①口
口口口口

④口口口
口口口口
口③⑤⑤ |③---|
口口④④ |④-⑤-|
44
口口口口 |①---|
④②④④ |②---|
①③口口 |③---|
口口口口 |④---|
45
①①②① |①---|
口③口口 |②-③-|
⑤口⑤④ |④---|
⑥⑥口⑥ |⑤-⑥-|
46
③④④③ |①---|
③④④③ |②---|
口①口口 |③---|
口口②口 |④---|
47
口口口口 |①---|
⑤口口④ |②-③-|
①③②① |--④-|
①③②① |--⑤-|
48
④②②④ |----|
口③③口 |①-②-|
④②②④ |--③-|
①口口① |--④-|
49
口⑤④口 |----|
口③口口 |①-②-|
口口②口 |③-④-|
⑥①口⑥ |⑤-⑥-|
50
①口口① |①---|
④④口④ |----|
②②⑤② |②-③-|
口口③口 |④-⑤-|
51
①①①① |①---|
口口口口 |--②-|
②⑤口③ |③-④-|
④口⑤④ |--⑤-|
52
③口口③ |①-②-|
口②②口 |--③-|
口口①口
口①口口

口口⑤口
⑤口口口
口口⑤口 |--④-|
④口口④ |--⑤-|
53
口①口口 |----|
口③②① |--①-|
②口口③ |②-③-|
口④口④ |--④-|
54
口④①④ |①-②-|
⑦⑦口⑦ |③-④-|
⑤⑤②⑤ |--⑤-|
③口⑥口 |⑥-⑦-|
55
②⑤⑤② |①---|
口口④口 |--②-|
口口①口 |③-④-|
口③口口 |--⑤-|
56
③口口③ |①-②-|
口②口② |--③-|
③④④③ |--④-|
⑤口①⑤ |--⑤-|
57
③③③③ |----|
②③③② |----|
口①②① |--①-|
口口①口 |②-③-|
58
口口口口 |----|
③③口③ |----|
①①④① |①-②-|
口口②口 |③-④-|
59
①①①① |①---|
口口口口 |--②-|
②⑤口③ |③-④-|
④口⑤④ |--⑤-|
60
③③③③ |①-②-|
口②②口 |--③-|
③口①③
口①口口

口口口口
⑤口口⑤
口口口口 |--④-|
④⑤⑤④ |--⑤-|
61
口口口口 |----|
口①口口 |--①-|
口③②① |②-③-|
②④④③ |--④-|
62
②口口② |①-②-|
①③④① |③-④-|
④⑤⑤③ |--⑤-|
⑥⑥⑥⑥ |--⑥-|
63
口口②① |----|
①口口口 |----|
口①口口 |①---|
口口口口 |②---|
64
⑤⑤⑤⑤ |①---|
口④口④ |②-③-|
④口口② |--④-|
①③口③ |--⑤-|
65
口口口口 |①---|
口口③口 |②-③-|
口口④⑤ |④---|
⑤口①② |⑤---|
66
口口口口 |①---|
①②口① |----|
口①②口 |②---|
口②口② |----|
67
①①①① |①---|
口口①口 |----|
口口口口 |----|
口口口口 |----|


不确定度: 0

最終更新:2012年11月11日 22:54