CARTOON HEROES

BASIC

Level: 2
BPM: 128
Notes: 136

1
口口口口 |----|
口口口口 |----|
口口口口 |----|
口口口口 |----|
2
口口口口 |①---|
口口口口 |----|
口①②口 |②---|
口口口口 |----|
3
口口口口 |①---|
口①①口 |----|
口口口口 |----|
口口口口 |----|
4
口口口口 |----|
口口口口 |----|
口口口口 |----|
口口口口 |----|
5
口口口口 |----|
口口口① |----|
口口口口 |----|
口口口口 |①---|
6
口口口口 |----|
口②①口 |①---|
口口口口 |----|
口口口口 |②---|
7
口口口口 |----|
①口口口 |①---|
②口口口 |----|
口口口口 |②---|
8
口口口口 |----|
口口口口 |①---|
口①②口 |----|
口口口口 |②---|
9
口口口口 |----|
口口口口 |①---|
口口口① |----|
口口口② |②---|
10
口口口口 |----|
口口口口 |①---|
口口口口 |----|
口②①口 |②---|
11
口口口口 |----|
口口口口 |①---|
口②②口 |----|
①口口口 |②---|
12
口口口口 |----|
口①①口 |----|
口口口口 |----|
口口口口 |①---|
13
口①口口 |----|
口口口口 |----|
口口口口 |----|
口口口口 |①---|
14
口口①口 |----|
口口②口 |①---|
口口口口 |----|
口口口口 |②---|
15
口口口口 |----|
口①口口 |①---|
口②口口 |----|
口口口口 |②---|
16
口口口口 |----|
口口口口 |①---|
口口①口 |----|
口口②口 |②---|
17
口口口口 |----|
口口口口 |①---|
②口口② |----|
口①口口 |②---|
18
口口口口 |----|
①口口① |----|
口口口口 |----|
口口口口 |①---|
19
口口①口 |----|
口口口口 |----|
口口口口 |----|
口口口口 |①---|
20
口①口口 |----|
②口口口 |①---|
口口口口 |----|
口口口口 |②---|
21
口口口口 |①---|
口①②③ |②---|
口口④口 |③---|
口口口口 |④---|
22
口口口口 |----|
口口口口 |①---|
口①口口 |----|
②口口口 |②---|
23
口口口口 |①---|
口口口口 |②---|
口口口④ |③---|
口①②③ |④---|
24
口口②口 |----|
口口口① |①---|
口口口口 |----|
口口口口 |②---|
25
口口口口 |①---|
口口①口 |②---|
口口②口 |③---|
口④③口 |④---|
26
口口③口 |①---|
口②口口 |②---|
口①口口 |----|
口口口口 |③---|
27
口口口口 |①---|
口口①口 |②---|
口③②口 |----|
口口口口 |③---|
28
②口口口 |----|
口①口口 |①---|
口口口口 |----|
口口口口 |②---|
29
口口口口 |①---|
①口口口 |②---|
②口口口 |③---|
③④口口 |④---|
30
口口口口 |----|
口口口口 |①---|
口口口② |----|
口口①口 |②---|
31
④口口口 |①---|
④口口口 |②---|
③②①口 |③---|
口口口口 |④---|
32
口①②口 |----|
口①②口 |①---|
口口口口 |----|
口口口口 |②---|
33
口口口① |----|
口口口① |①---|
口口口② |----|
口口口口 |②---|
34
口口口口 |①---|
口口口口 |②---|
口②①口 |----|
③口口口 |③---|
35
口口口口 |①---|
口口口口 |②---|
口口③口 |----|
口①②口 |③---|
36
口④④口 |①---|
口③②口 |②---|
口①口口 |③---|
口口口口 |④---|
37
口②口口 |----|
①口口① |①---|
口口口口 |----|
口口口口 |②---|
38
口口口口 |①---|
口①口口 |②---|
口②口口 |③---|
口③④口 |④---|
39
口口口口 |①---|
口口②口 |②---|
口口①口
口口口口

口口③口
口口口口
口口④口 |③---|
口口口口 |④---|
40
口④④口 |①---|
口③②口 |②---|
口①口口 |③---|
口口口口 |④---|
41
口②口口 |----|
①口口① |①---|
口口口口 |----|
口口口口 |②---|
42
口口口口 |①---|
口①口口 |②---|
口②口口 |③---|
口③④口 |④---|
43
口口③④ |①---|
口口②口 |②---|
口口①口 |③---|
口口口口 |④---|
44
口口口口 |----|
②①①口 |①---|
口口口口 |----|
口口口口 |②---|
45
口口口口 |----|
口口口口 |①---|
口①①口 |----|
口口②口 |②---|
46
口口口口 |①---|
④口口口 |②---|
④③②口 |③---|
口①口口 |④---|
47
口口口口 |----|
口②口① |①---|
口②口① |----|
口口口口 |②---|
48
口②②口 |----|
口口①口 |①---|
口口①口 |----|
口口口口 |②---|
49
口口口口 |----|
口①①口 |----|
口口口口 |----|
口口口口 |①---|


不确定度: 0

最終更新:2012年11月11日 22:52