CARTOON HEROES

EXTREME

Level: 7
BPM: 128
Notes: 391

1
口口口口 |----|
口口口口 |----|
口口口口 |----|
口口口口 |----|
2
口①口口 |①---|
①口③口 |②---|
口②④口 |③---|
口口④口 |④---|
3
口口口口 |①---|
口口口口 |----|
口口口① |----|
口口口① |----|
4
口口口口 |----|
口口口口 |----|
口口口口 |----|
口口口口 |----|
5
口口口口 |----|
口口口口 |----|
口口口口 |----|
口①①口 |①---|
6
口口口口 |①---|
口口③④ |②---|
口口②① |③---|
口口口口 |④---|
7
口口①② |①-②-|
口口口口 |--③-|
口口③④ |④---|
口⑤⑤口 |⑤---|
8
口口②④ |①---|
口口口口 |②---|
口口①③ |③---|
口口口口 |④---|
9
口口③④ |①-②-|
口口①② |--③-|
口口口口 |④---|
口⑤⑤口 |⑤---|
10
口口①口 |①---|
口口③④ |②---|
口口口② |③-④-|
口口口口 |----|
11
口口⑤④ |①-②-|
口⑤⑤③ |--③-|
⑤⑤①② |④---|
口口口口 |⑤---|
12
口②口口 |①---|
口口口① |②---|
口口①①
口①①口

⑤口口口
③口口④
口口④④ |③-④-|
口④④口 |--⑤-|
13
口口①③ |--①-|
口①①口 |--②-|
①①口口 |③---|
口④④② |④---|
14
口④口口 |①---|
①口口口 |②---|
②③口口 |③---|
口口口口 |④---|
15
①口口口 |①-②-|
③②口口 |--③-|
口④口口 |④---|
口口⑤④ |⑤---|
16
口口口口 |①---|
②①口口 |②---|
③④口口 |③---|
口口口口 |④---|
17
①口口口 |①-②-|
③②口口 |--③-|
口口口口
口口口口

⑤⑤口口
口口口口
口④口口 |④---|
口口⑤④ |⑤---|
18
口口口口 |①---|
①①口口 |②---|
②②口口
口口口口

③口口口
④口口口
口口口口 |--③-|
口口口口 |--④-|
19
②②口口 |①---|
口口口口 |②---|
口①口口 |③---|
④口口③ |④---|
20
口口①口 |①---|
口口口② |②---|
口口④③ |③---|
④①②③ |④---|
21
口口口① |①-②-|
口口②④ |③-④-|
口口⑤口 |⑤---|
⑥①③⑤ |⑥---|
22
口口①口 |①---|
口口口② |②---|
口口③④ |③---|
④①②③ |④---|
23
口口口① |①-②-|
口口②④ |③-④-|
口口⑤口 |⑤---|
⑥①③⑤ |⑥---|
24
口口口① |①---|
口口②④ |②---|
口口口③ |③-④-|
⑤①②③ |⑤---|
25
口口①口 |①-②-|
口口②口 |③-④-|
口口④口
口①③口

口口⑥⑤
口⑥⑥口
⑥⑥口口 |⑤---|
口口口⑤ |⑥---|
26
口②口口 |①---|
口口口① |②---|
口口①①
口①①口

⑤口口口
③口口④
口口④④ |③-④-|
口④④口 |--⑤-|
27
口口①③ |--①-|
口①①口 |--②-|
①①口口 |③---|
④口口② |④---|
28
③口口口 |①---|
口②口口 |②---|
①④口口 |③---|
④①②③ |④---|
29
④⑤口口 |①-②-|
①②口口 |③-④-|
口口口口 |⑤---|
⑥①③⑤ |⑥---|
30
③口口口 |①-②-|
口②口口 |③---|
①口口口
口①③口

口④口口
⑤口口口
⑦口口口 |④-⑤-|
⑥口口④ |⑥-⑦-|
31
②⑤口口 |①-②-|
④①口口 |③-④-|
⑥⑥口口 |⑤---|
⑥①③⑤ |⑥---|
32
②②口口 |①---|
①①口口 |②---|
口口口口
口①②口

口口口口
⑥口口口
④口口口 |③-④-|
⑤口口③ |⑤-⑥-|
33
口②口口 |①---|
口口口口 |②---|
口①口口
口①②口

口口口口
口口口口
④④口口 |③---|
④口口③ |④---|
34
②②口口 |①---|
①①口口 |②---|
口口口口
口①②口

口口口口
⑤口口口
③④口口 |③-④-|
口口口③ |--⑤-|
35
②口口口 |①---|
口①口口 |②---|
②口口口
口口口口

口③④口
口⑤⑥口
⑧口⑧口 |③④⑤⑥|
⑦口口⑦ |⑦-⑧-|
36
②③②③ |①-②-|
口口口口 |③---|
口①口口
口口口口

口口口口
口口口口
⑤⑤⑤⑤ |④---|
④口④口 |⑤---|
37
①②①② |①-②-|
口口口口 |--③-|
口口口口
③口③口

口⑥口⑥
⑤口⑤口
口④口④ |④-⑤-|
口口口口 |--⑥-|
38
⑦口⑦口 |①-②-|
⑥①⑥① |③-④-|
⑤②⑤② |⑤-⑥-|
④③④③ |⑦---|
39
口口口口 |①---|
口①口① |②---|
②口②口 |③---|
④③④③ |--④-|
40
①③①③ |①---|
④口④口 |②---|
口⑤口⑤ |③-④-|
口②口② |⑤---|
41
②口②口 |①-②-|
口口口口 |--③-|
口③口③
①口①口

口⑤口⑤
④口④口
口口口口 |④-⑤-|
⑥口⑥口 |--⑥-|
42
③口③口 |①-②-|
②④②④ |③---|
①⑤①⑤ |④-⑤-|
口⑥口⑥ |⑥---|
43
②①②① |①-②-|
口口口口 |----|
口口口口 |③---|
③③③③ |----|
44
③④③④ |①-②-|
②⑤②⑤ |③-④-|
①口①口 |⑤---|
口⑥口⑥ |--⑥-|
45
⑥口⑥口 |①-②-|
③④③④ |③-④-|
②⑤②⑤ |⑤---|
①口①口 |⑥---|
46
口③口③ |①---|
口口口口 |②---|
④④④④ |③---|
②①②① |④---|
47
②②②② |----|
口口口口 |①---|
口口口口 |----|
口①①口 |②---|
48
口口口口 |----|
口①①口 |①---|
口口口口 |----|
②②②② |②---|
49
②口口② |----|
①①①① |----|
口口口口 |①---|
口口口口 |②---|
50
口①①口 |----|
口①口口 |①---|
口①①口 |----|
口①口口 |----|


不确定度: 0

最終更新:2012年11月11日 22:51