Baroque Hoedown

BASIC

Level: 3
BPM: 120
Notes: 263

1
口口口口 |----|
口①口口 |----|
口口口口 |----|
口口口口 |①---|
2
口口口口 |①---|
口口①口 |----|
②③口口 |②---|
口口口口 |③---|
3
口口口口 |①---|
口口④③ |②---|
口口①② |③---|
口口口口 |④---|
4
口③③口 |①---|
②①口④ |②---|
口口口口 |③---|
口口口口 |④---|
5
口口口口 |①---|
③②①口 |②---|
④口口口 |③---|
口口口口 |④---|
6
口口口口 |①---|
口口口口 |②---|
口①②口 |----|
口口口口 |----|
7
口口口口 |①---|
①口口② |----|
口口口口 |②---|
口口口口 |----|
8
口口口口 |①---|
口口口口 |----|
①口口② |②---|
口口口口 |----|
9
口①①口 |①---|
②口口③ |----|
口口口口 |②---|
口口口口 |③---|
10
口口口口 |①---|
②口口③ |----|
口①①口 |②---|
口口口口 |③---|
11
口口口口 |①---|
口①①口 |----|
口②②口 |②---|
口口口口 |----|
12
口口口口 |①---|
口①①口 |----|
②口口③ |②---|
口口口口 |③---|
13
口口口口 |①---|
口①①口 |----|
口②②口 |②---|
口口口口 |----|
14
③②②③ |①---|
④①①④ |②---|
口口口口 |③---|
口口口口 |④---|
15
口口口口 |①---|
口①①口 |----|
口②②口 |②---|
口口口口 |----|
16
口口口口 |①---|
口①①口 |----|
②口口③ |②---|
口口口口 |③---|
17
口口口口 |①---|
口①①口 |----|
口②②口 |②---|
口口口口 |----|
18
③②②③ |①---|
④①①④ |②---|
口口口口 |③---|
口口口口 |④---|
19
口口口口 |①---|
口口口口 |----|
①口口② |②---|
口口口口 |----|
20
口口口口 |①---|
①②③④ |②---|
口口口口 |③---|
口口口口 |④---|
21
①口口② |①---|
口口口口 |----|
口口口口 |②---|
口口口口 |----|
22
口口口口 |①---|
口①②口 |②---|
口③④口 |③---|
口口口口 |④---|
23
口口口口 |①---|
口①①口 |----|
口②②口 |②---|
口口口口 |----|
24
口口口口 |①---|
口①①口 |----|
②口口③ |②---|
口口口口 |③---|
25
口口口口 |①---|
口①①口 |----|
口②②口 |②---|
口口口口 |----|
26
③②②③ |①---|
④①①④ |②---|
口口口口 |③---|
口口口口 |④---|
27
口口口口 |①---|
口①①口 |----|
口②②口 |②---|
口口口口 |----|
28
口口口口 |①---|
口①①口 |----|
②口口③ |②---|
口口口口 |③---|
29
口口口口 |①---|
口①①口 |----|
口②②口 |②---|
口口口口 |----|
30
③②②③ |①---|
④①①④ |②---|
口口口口 |③---|
口口口口 |④---|
31
口口口口 |----|
口①②口 |①---|
口①②口 |----|
口口口口 |②---|
32
口口口口 |----|
①口口② |①---|
①口口② |----|
口口口口 |②---|
33
口口口口 |----|
口口口口 |①---|
口②②口 |----|
口①①口 |②---|
34
口②②口 |----|
口①①口 |①---|
口口口口 |----|
口口口口 |②---|
35
口口口口 |----|
①口口② |①---|
①口口② |----|
口口口口 |②---|
36
口口口口 |----|
①口口② |①---|
①口口② |----|
口口口口 |②---|
37
口口口口 |----|
①口口② |①---|
①口口② |----|
口口口口 |②---|
38
口口口口 |----|
①口口② |①---|
①口口② |----|
口口口口 |②---|
39
口口口口 |----|
③②②口 |①---|
口①①口 |②---|
口口口口 |③---|
40
口①口③ |①---|
口口②④ |②---|
口口口口 |③---|
口口口口 |④---|
41
③口①口 |①---|
口②口口 |②---|
口口口口 |③---|
口④④口 |④---|
42
口口口口 |----|
口②②口 |①---|
口①①口 |----|
口口口口 |②---|
43
口口口口 |----|
口②②口 |①---|
口①①口 |----|
口口口口 |②---|
44
口口口口 |----|
口③③口 |①---|
①口口② |②---|
口口口口 |③---|
45
口口口口 |----|
口②②口 |①---|
口①①口 |----|
口口口口 |②---|
46
②①①② |①---|
③口口③ |②---|
口④④口 |③---|
口口口口 |④---|
47
口口口口 |----|
口①①口 |①---|
口②②口 |----|
口口口口 |②---|
48
口口口口 |----|
①口口② |①---|
口③③口 |②---|
口口口口 |③---|
49
口口口口 |----|
口①①口 |①---|
口②②口 |----|
口口口口 |②---|
50
口口口口 |①---|
④口口④ |②---|
③口口③ |③---|
②①①② |④---|
51
①②②① |①---|
口口口口 |②---|
③口口④ |③---|
口口口口 |④---|
52
口口口口 |①---|
①口口② |②---|
口口口口 |③---|
口③③口 |----|
53
②①①② |①---|
口口口口 |----|
口口口口 |②---|
口口口口 |----|
54
②①①② |①---|
③口口③ |----|
口口口口 |②---|
口口口口 |③---|
55
口③③口 |①---|
④口口④ |②---|
①②②① |③---|
口口口口 |④---|
56
口口口口 |①---|
口①①口 |②---|
②③③② |③---|
④口口④ |④---|
57
口口口口 |①---|
④口口④ |②---|
②③③② |③---|
口①①口 |④---|
58
②③③② |①---|
口①①口 |②---|
口口口口 |③---|
口口口口 |----|


不确定度: 0

最終更新:2012年11月11日 22:50