Baroque Hoedown

ADVANCED

Level: 8
BPM: 120
Notes: 612

1
口①①口 |----|
口口口口 |----|
口口口口 |----|
口口口口 |①---|
2
②口口⑤ |①---|
①③④① |----|
①口口① |②-③-|
口口口口 |④-⑤-|
3
口口口口 |①-②-|
口口口口 |③-④-|
口①③口
②口口④

口⑤口口
口⑥口口
口口⑧口 |⑤-⑥-|
口口⑦口 |⑦-⑧-|
4
⑨口①口 |①-②-|
口口②⑧ |③④⑤-|
⑥③口④ |⑥-⑦-|
口⑤口⑦ |⑧-⑨-|
5
口口口② |①-②-|
①口口口 |③-④-|
③口口口
口口口④

口口口口
口口口⑤
⑧口口⑥ |⑤-⑥-|
⑦口口口 |⑦-⑧-|
6
口①口口 |①②③④|
⑤口②⑤ |⑤---|
口③口口 |----|
口口④口 |----|
7
⑦④②⑤ |①-②-|
④口口② |③-④-|
⑥口口⑧ |⑤-⑥-|
①⑥⑧③ |⑦-⑧-|
8
⑦④②⑤ |①-②-|
④口口② |③-④-|
⑥口口⑧ |⑤-⑥-|
①⑥⑧③ |⑦-⑧-|
9
⑧①②⑦ |①②-③|
⑧口口⑦ |-④⑤⑥|
③⑤④口 |--⑦-|
口口⑥口 |--⑧-|
10
⑧①②⑦ |①②-③|
⑧口口⑦ |-④⑤⑥|
③⑤④口 |--⑦-|
口口⑥口 |--⑧-|
11
口②②口 |①---|
口①①口 |②-③-|
③口口口
口口③口

口口口口
⑦⑤⑥⑧
口④④口 |④-⑤⑥|
口⑨⑩口 |⑦⑧⑨⑩|
12
口③口口 |①-②-|
口④口⑤ |③-④-|
⑥口②① |⑤-⑥-|
①⑧⑦口 |⑦-⑧-|
13
口②②口 |①---|
口①①口 |②-③-|
③口口口
口口③口

口口口口
⑦⑤⑥⑧
口④④口 |④-⑤⑥|
口⑨⑩口 |⑦⑧⑨⑩|
14
口口②口 |①-②-|
口④口⑤ |③-④-|
⑥③③① |⑤-⑥-|
口⑦⑦口 |⑦---|
15
口②②口 |①---|
口①①口 |②-③-|
③口口口
口口③口

口口口口
⑦⑤⑥⑧
口④④口 |④-⑤⑥|
口⑨⑩口 |⑦⑧⑨⑩|
16
口③口口 |①-②-|
口④口⑤ |③-④-|
⑥口②① |⑤-⑥-|
①⑧⑦口 |⑦-⑧-|
17
口②②口 |①---|
口①①口 |②-③-|
③口口口
口口③口

口口口口
⑦⑤⑥⑧
口④④口 |④-⑤⑥|
口⑨⑩口 |⑦⑧⑨⑩|
18
口口②口 |①-②-|
口④口⑤ |③-④-|
⑥③③① |⑤-⑥-|
口⑦⑦口 |⑦---|
19
口①③口 |①---|
口口口口 |②---|
②口口④ |③---|
②口口④ |④---|
20
②口口④ |①-②-|
②①③④ |③-④-|
口⑤⑥口 |⑤-⑥-|
口⑦⑦口 |⑦---|
21
②④⑥⑧ |①-②-|
口口口口 |③-④-|
①③⑤⑦ |⑤-⑥-|
口口口口 |⑦-⑧-|
22
口口口口 |①-②-|
⑤②④⑤ |③-④-|
口⑦⑦口 |⑤-⑥-|
⑥①③⑥ |⑦---|
23
口②②口 |①---|
口①①口 |②-③-|
③口口口
口口③口

口口口口
⑦⑤⑥⑧
口④④口 |④-⑤⑥|
口⑨⑩口 |⑦⑧⑨⑩|
24
口③口口 |①-②-|
口④口⑤ |③-④-|
⑥口②① |⑤-⑥-|
①⑧⑦口 |⑦-⑧-|
25
口②②口 |①---|
口①①口 |②-③-|
③口口口
口口③口

口口口口
⑦⑤⑥⑧
口④④口 |④-⑤⑥|
口⑨⑩口 |⑦⑧⑨⑩|
26
口口②口 |①-②-|
口④口⑤ |③-④-|
⑥③③① |⑤-⑥-|
口⑦⑦口 |⑦---|
27
口②②口 |①---|
口①①口 |②-③-|
③口口口
口口③口

口口口口
⑦⑤⑥⑧
口④④口 |④-⑤⑥|
口⑨⑩口 |⑦⑧⑨⑩|
28
口③口口 |①-②-|
口④口⑤ |③-④-|
⑥口②① |⑤-⑥-|
①⑧⑦口 |⑦-⑧-|
29
口②②口 |①---|
口①①口 |②-③-|
③口口口
口口③口

口口口口
⑦⑤⑥⑧
口④④口 |④-⑤⑥|
口⑨⑩口 |⑦⑧⑨⑩|
30
口口②口 |①-②-|
口④口⑤ |③-④-|
⑥③③① |⑤-⑥-|
①⑦⑦口 |⑦---|
31
①②②① |①---|
⑦⑤③⑦ |②③-④|
口④④口 |⑤-⑥-|
⑥口口⑥ |⑦---|
32
口口口口 |---①|
口口口口 |----|
①③④① |--②-|
口②②口 |③--④|
33
③口口③ |--①-|
口②②口 |②-③-|
口口口口
①口口①

⑦④④⑦
⑥口口⑥
⑤口口⑤ |-④⑤-|
口口口口 |⑥--⑦|
34
口③③口 |-①②-|
④①①④ |③--④|
口②②口
口口口口

口口口口
口⑦⑧口
⑤口口⑤ |-⑤⑥-|
⑥⑦⑧⑥ |⑦--⑧|
35
⑤①②⑤ |----|
③⑥⑥③ |①--②|
④①②④ |-③④-|
口口口口 |⑤--⑥|
36
⑦③③⑦ |-①②-|
④口口④ |③--④|
⑦①②⑦ |-⑤⑥-|
口⑥⑤口 |⑦---|
37
③②②③ |--①-|
⑥口④⑥ |②--③|
⑦口⑤⑦ |-④⑤-|
①口口① |⑥--⑦|
38
口③③口 |-①②-|
④①口④ |③--④|
口②口口
口口口口

⑧口口口
口⑦口口
口口⑨口 |-⑤⑥-|
口⑤⑥⑩ |⑦⑧⑨⑩|
39
口口口③ |①---|
①口②口 |②③④⑤|
①④口口
⑤口口口

口口口口
⑨口口⑥
口口口⑥ |⑥---|
口⑦⑧口 |⑦⑧⑨-|
40
口⑧⑦③ |①②③-|
⑫④⑤口 |④⑤⑥-|
口②①⑨ |⑦⑧⑨-|
⑥⑩⑪口 |⑩⑪⑫-|
41
口⑧⑦③ |①②③-|
口④⑤口 |④⑤⑥-|
⑫②①⑨ |⑦⑧⑨-|
⑥⑩⑪⑬ |⑩⑪⑫⑬|
42
口口②口 |①-②③|
③①①④ |④--⑤|
口⑤口④
口口口口

口口口⑥
口⑦⑦口
口口口口 |⑥---|
口口口口 |⑦---|
43
口①①口 |①-②-|
口④⑤口 |③-④⑤|
②③③口
口口②口

口口口口
⑥口口⑦
口口⑪⑩ |⑥⑦⑧⑨|
⑩⑧⑨口 |⑩-⑪-|
44
口①口口 |①-②-|
口②口③ |③-④-|
④口口口
口口口口

口口口口
口⑦⑦口
口口口口 |⑤-⑥-|
口⑥⑤口 |⑦---|
45
口①①口 |①-②-|
口④⑤口 |③-④⑤|
②③③口
口口②口

口口⑪口
⑥口口⑦
口口口⑩ |⑥⑦⑧⑨|
口⑧⑨口 |⑩-⑪-|
46
口口口口 |①-②-|
口②口③ |③-④-|
④①①口
口口口口

口口口口
口口口口
口⑥⑥⑦ |⑤---|
口⑤⑤口 |⑥-⑦-|
47
④⑥⑧⑪ |①-②-|
⑤⑦⑨① |③-④⑤|
⑩⑩口口 |⑥⑦⑧⑨|
口③③② |⑩-⑪-|
48
⑤口口口 |①-②-|
口口④② |③-④-|
口⑦⑦⑧ |⑤-⑥-|
③①⑥口 |⑦-⑧-|
49
④⑥⑧⑪ |①-②-|
⑤⑦⑨① |③-④⑤|
⑩⑩口口 |⑥⑦⑧⑨|
口③③② |⑩-⑪-|
50
口口口口 |①-②-|
口口④② |③-④-|
口口口口
③①口口

⑦⑤口口
口口口口
口口口口 |⑤-⑥-|
⑧⑥口口 |⑦-⑧-|
51
口口⑤⑦ |①-②-|
②口①口 |③-④-|
③口④口 |⑤-⑥-|
口口⑥⑧ |⑦-⑧-|
52
⑦⑤口口 |①-②-|
口①口② |③-④-|
口④口③ |⑤-⑥-|
⑧⑥口口 |⑦-⑧-|
53
口口⑤⑦ |①-②-|
②口①口 |③-④-|
③口④口 |⑤-⑥-|
口口⑥⑧ |⑦-⑧-|
54
⑦⑧口口 |①-②-|
口①口② |③-④-|
口④口③ |⑤-⑥-|
⑤⑥口口 |⑦-⑧-|
55
⑦⑧④③ |①-②-|
口口口口 |③-④-|
口口口口 |⑤-⑥-|
⑤⑥②① |⑦-⑧-|
56
口口④③ |①-②-|
⑤⑥⑦⑧ |③-④-|
⑥⑤⑧⑦ |⑤-⑥-|
口口②① |⑦-⑧-|
57
①②③④ |①-②-|
⑤⑥⑦⑧ |③-④-|
⑥⑤⑧⑦ |⑤-⑥-|
①②③④ |⑦-⑧-|
58
④③②① |①-②-|
口口口口 |③-④-|
口口口口 |----|
④③②① |----|


不确定度: 0

最終更新:2012年11月11日 22:49