Baroque Hoedown

EXTREME

Level: 9
BPM: 120
Notes: 773

1
口口口口 |----|
①口口① |----|
口①①口 |----|
口口口口 |①---|
2
②口口⑤ |①---|
口①①口 |----|
口口口口 |②-③-|
①③④① |④-⑤-|
3
口②③口 |①-②-|
⑤口口⑤ |③-④-|
口⑥⑧口 |⑤-⑥-|
①口⑦④ |⑦-⑧-|
4
口③①口 |①-②-|
口②④口 |③④⑤-|
口口口口
口⑤口口

口口口口
⑥口⑨⑥
口口口口 |⑥-⑦-|
口口⑦⑧ |⑧-⑨-|
5
③②②口 |①-②-|
口口口口 |③-④-|
口口口口
①④③口

口口⑧⑥
口⑤口口
口⑦⑦口 |⑤-⑥-|
口口口⑤ |⑦-⑧-|
6
①①口口 |①②③④|
口口③口 |⑤---|
②口口口 |----|
口⑤⑤④ |----|
7
①②③口 |①②③-|
④⑤⑥口 |④⑤⑥-|
⑦⑧⑨口 |⑦⑧⑨-|
⑩⑪⑫口 |⑩⑪⑫-|
8
①②口③ |①②③-|
④⑤口⑥ |④⑤⑥-|
⑦⑧口⑨ |⑦⑧⑨-|
⑩⑪口⑫ |⑩⑪⑫-|
9
③①①④ |①--②|
口②②口 |-③④-|
⑤口⑥⑥ |⑤-⑥-|
⑦口⑧⑧ |⑦-⑧-|
10
③①①④ |①--②|
口②②口 |-③④-|
⑤口⑥⑥ |⑤-⑥-|
⑦口⑧⑧ |⑦-⑧-|
11
口①①口 |①-②③|
口⑤⑤④ |④-⑤-|
口口③口
口②口口

⑥口口⑥
⑦⑫口口
口⑧口⑩ |⑥-⑦⑧|
口⑪⑨口 |⑨⑩⑪⑫|
12
⑤①①⑦ |①-②③|
口口口③ |④⑤⑥⑦|
④口口⑥
口口口②

口口口口
⑫⑨⑪口
口⑬口⑮ |⑧⑨⑩⑪|
口⑧⑩⑭ |⑫⑬⑭⑮|
13
口①①口 |①-②③|
口⑤⑤④ |④-⑤-|
口口③口
口②口口

⑥口口⑥
⑦⑫口口
口⑧口⑩ |⑥-⑦⑧|
口⑪⑨口 |⑨⑩⑪⑫|
14
④口口⑬ |①②③④|
⑫⑪⑥② |⑤⑥⑦⑧|
③⑧①⑩ |⑨⑩⑪⑫|
⑦口⑨⑤ |⑬---|
15
口①①口 |①-②③|
口⑤⑤④ |④-⑤-|
口口③口
口②口口

⑥口口⑥
⑦⑫口口
口⑧口⑩ |⑥-⑦⑧|
口⑪⑨口 |⑨⑩⑪⑫|
16
⑤①①⑦ |①-②③|
口口口③ |④⑤⑥⑦|
④口口⑥
口口口②

口口口口
⑫⑨⑪口
口⑬口⑮ |⑧⑨⑩⑪|
口⑧⑩⑭ |⑫⑬⑭⑮|
17
口①①口 |①-②③|
口⑤⑤④ |④-⑤-|
口口③口
口②口口

⑥口口⑥
⑦⑫口口
口⑧口⑩ |⑥-⑦⑧|
口⑪⑨口 |⑨⑩⑪⑫|
18
④口口⑬ |①②③④|
⑫⑪⑥② |⑤⑥⑦⑧|
③⑧①⑩ |⑨⑩⑪⑫|
⑦口⑨⑤ |⑬---|
19
①②口⑥ |①②③④|
口口③④ |⑤-⑥-|
口口口口
口口口⑤

口⑪口口
⑦⑧口口
口口⑨⑩ |⑦⑧⑨⑩|
口口口口 |⑪---|
20
口口口口 |①②③④|
口口口口 |⑤⑥⑦⑧|
⑤⑥⑦⑧
①②③④

⑬口口口
⑨⑩⑪⑫
口口口口 |⑨⑩⑪⑫|
⑭口口口 |⑬-⑭-|
21
口⑦⑧⑨ |①②③-|
口④⑤⑥ |④⑤⑥-|
口①②③ |⑦⑧⑨-|
口⑩⑪⑫ |⑩⑪⑫-|
22
⑧⑦⑥⑤ |①②③④|
①②③④ |⑤⑥⑦⑧|
⑨⑩⑪⑫ |⑨⑩⑪⑫|
口口口⑬ |⑬---|
23
口①①口 |①-②③|
口⑤⑤④ |④-⑤-|
口口③口
口②口口

⑥口口⑥
⑦⑫口口
口⑧口⑩ |⑥-⑦⑧|
口⑪⑨口 |⑨⑩⑪⑫|
24
⑤①①⑦ |①-②③|
口口口③ |④⑤⑥⑦|
④口口⑥
口口口②

口口口口
⑫⑨⑪口
口⑬口⑮ |⑧⑨⑩⑪|
口⑧⑩⑭ |⑫⑬⑭⑮|
25
口①①口 |①-②③|
口⑤⑤④ |④-⑤-|
口口③口
口②口口

⑥口口⑥
⑦⑫口口
口⑧口⑩ |⑥-⑦⑧|
口⑪⑨口 |⑨⑩⑪⑫|
26
④口口口 |①②③④|
口口⑥② |⑤⑥⑦⑧|
③⑧①口
⑦口口⑤

⑯⑮⑭⑬
⑫⑪口口
口口口⑩ |⑨⑩⑪⑫|
口口⑨口 |⑬⑭⑮⑯|
27
口口口口 |①②③④|
口⑥⑥⑤ |⑤-⑥-|
口口口口
④③②①

⑦口口⑦
⑧⑬口口
口⑨口⑪ |⑦-⑧⑨|
口⑫⑩口 |⑩⑪⑫⑬|
28
⑤①①⑦ |①-②③|
口口口③ |④⑤⑥⑦|
④口口⑥
口口口②

口口口口
⑫⑨⑪口
口⑬口⑮ |⑧⑨⑩⑪|
口⑧⑩⑭ |⑫⑬⑭⑮|
29
口①①口 |①-②③|
口⑤⑤④ |④-⑤-|
口口③口
口②口口

⑥口口⑥
⑦⑫口口
口⑧口⑩ |⑥-⑦⑧|
口⑪⑨口 |⑨⑩⑪⑫|
30
④口口⑬ |①②③④|
⑫⑪⑥② |⑤⑥⑦⑧|
③⑧①⑩ |⑨⑩⑪⑫|
⑦口⑨⑤ |⑬---|
31
②①④⑦ |①---|
口口口⑦ |②③-④|
⑦③口⑤ |⑤-⑥-|
⑦⑥⑥口 |⑦---|
32
①口口口 |---①|
①口口口 |----|
口口口①
口口口①

口④③口
口口口口
口口口口 |--②-|
③②②④ |③--④|
33
③⑦⑦③ |--①-|
⑥④⑤⑥ |②-③-|
②①①② |-④⑤-|
口口口口 |⑥--⑦|
34
③⑦⑧④ |-①②-|
口⑤⑥口 |③--④|
③①②④ |-⑤⑥-|
⑧口口⑦ |⑦--⑧|
35
②⑤⑥① |----|
口口口口 |①--②|
②③④① |-③④-|
口⑥⑤口 |⑤--⑥|
36
⑦口口⑦ |-①②-|
③①②④ |③--④|
口口口口 |-⑤⑥-|
③⑤⑥④ |⑦---|
37
⑥②②⑦ |--①-|
口④⑤口 |②--③|
⑥①①⑦ |-④⑤-|
③口口③ |⑥--⑦|
38
口口口口 |-①②-|
口④③口 |③--④|
口口口口
③①②④

⑧⑨口口
口口⑩口
⑦⑤⑥口 |-⑤⑥-|
口口口口 |⑦⑧⑨⑩|
39
口口⑥⑦ |①-②-|
④⑤口① |③④⑤⑥|
口⑧⑨⑩ |⑦---|
③口口② |⑧⑨⑩-|
40
口④⑤⑥ |①②③-|
口①②③ |④⑤⑥-|
口⑩⑪⑫ |⑦⑧⑨-|
口⑦⑧⑨ |⑩⑪⑫-|
41
口④⑤⑥ |①②③-|
口①②③ |④⑤⑥-|
口口口口
口口口口

口口口口
口⑬口口
口⑩⑪⑫ |⑦⑧⑨-|
口⑦⑧⑨ |⑩⑪⑫⑬|
42
口⑧⑧口 |①-②-|
①口④③ |③④⑤⑥|
⑤⑥⑩⑦ |⑦---|
②⑨口口 |⑧-⑨⑩|
43
③口口③ |①-②-|
④②②① |③-④⑤|
口⑤口口
口口口口

口⑩⑩口
口⑨口⑫
口口口⑦ |⑥⑦⑧⑨|
口⑧⑥⑪ |⑩-⑪⑫|
44
②口口④ |①②③④|
口⑥⑧口 |⑤⑥⑦⑧|
①口口③
口⑤⑦口

口⑬⑬口
⑨口口口
口⑩⑮⑫ |⑨⑩⑪⑫|
口⑭口⑪ |⑬-⑭⑮|
45
③口口③ |①-②-|
④②②① |③-④⑤|
口⑤口口
口口口口

⑬口口口
口⑨口⑪
⑫口⑩⑦ |⑥⑦⑧⑨|
口⑧⑥口 |⑩⑪⑫⑬|
46
口口口⑥ |①②③④|
⑦⑧②口 |⑤⑥⑦⑧|
口④口⑤
③口口①

口⑪⑨口
口口⑫口
口口口口 |⑨---|
口⑩⑩口 |⑩-⑪⑫|
47
口口口口 |①-②-|
口⑤口口 |③-④⑤|
④②②①
③口口③

口⑧⑥⑪
口口口⑦
口⑨口⑫ |⑥⑦⑧⑨|
口⑩⑩口 |⑩-⑪⑫|
48
口⑤⑦口 |①②③④|
①口口③ |⑤⑥⑦⑧|
口⑥⑧口
②口口④

口⑭口⑪
口⑩⑮⑫
⑨口口口 |⑨⑩⑪⑫|
口⑬⑬口 |⑬-⑭⑮|
49
口口口口 |①-②-|
口⑤口口 |③-④⑤|
④②②①
③口口③

口⑧⑥口
⑫口⑩⑦
口⑨口⑪ |⑥⑦⑧⑨|
⑬口口口 |⑩⑪⑫⑬|
50
③口⑤① |①②③④|
口④口⑥ |⑤⑥⑦⑧|
⑧⑦②口
口口口口

口口口口
⑯⑮口口
口口⑭⑬ |⑨⑩⑪⑫|
⑫⑪⑩⑨ |⑬⑭⑮⑯|
51
⑧⑦⑥⑤ |①②③④|
口口②① |⑤⑥⑦⑧|
④③口口
口口口口

口口口口
口口口口
⑩口口⑨ |⑨---|
⑩口口⑨ |⑩---|
52
③①①③ |①---|
③①①③ |②---|
口②②口 |③---|
口②②口 |----|
53
⑪⑨⑧⑩ |①---|
⑬⑦⑥⑫ |----|
口⑤④口 |②③④⑤⑥⑦|
①③②① |⑧⑨⑩⑪⑫⑬|
54
口⑫⑪口 |①②③④⑤⑥|
口⑩⑨口 |⑦⑧⑨⑩⑪⑫|
②⑧⑦①
④⑥⑤③

⑭口口⑬
⑯口口⑮
⑱DC⑰ |⑬⑭⑮⑯⑰⑱|
⑳BA⑲ |⑲⑳ABCD|
55
⑥④③⑤ |①②③④⑤⑥|
⑧②①⑦ |⑦⑧⑨⑩⑪⑫|
⑩口口⑨
⑫口口⑪

口口口口
口⑮⑮口
口⑬⑬口 |⑬---|
口⑭口口 |⑭-⑮-|
56
⑩⑫⑪⑨ |--①-|
⑧⑭⑬⑦ |②---|
⑥②②⑤ |③④⑤⑥⑦⑧|
④口①③ |⑨⑩⑪⑫⑬⑭|
57
⑫口口⑪ |①②③④⑤⑥|
⑩口口⑨ |⑦⑧⑨⑩⑪⑫|
⑧②①⑦
⑥④③⑤

口⑭⑬口
口⑯⑮口
D⑱⑰C |⑬⑭⑮⑯⑰⑱|
B⑳⑲A |⑲⑳ABCD|
58
④⑥⑤③ |①②③④⑤⑥|
②⑧⑦① |⑦⑧⑨⑩⑪⑫|
口⑩⑨口 |----|
口⑫⑪口 |----|


不确定度: 0

最終更新:2012年11月11日 22:48