TRUE♥LOVE
jun feat. Schanita

BASIC

Level: 3
BPM: 188
Notes: 287

1
口口口口 |----|
口口口口 |----|
口口口口 |----|
口口口口 |----|
2
口口口口 |①---|
口①②口 |----|
口口口口 |②---|
口口口口 |----|
3
口①②口 |①---|
口口口口 |----|
口口口口 |②---|
口口口口 |----|
4
①口口口 |①---|
口②口口 |----|
口口口口 |②---|
口口口口 |----|
5
口口口口 |①---|
口口①口 |----|
口口②口 |②---|
口口口口 |----|
6
口口口口 |①---|
口①②口 |----|
口口口口 |②---|
口口口口 |----|
7
口①②口 |①---|
口口口口 |----|
口口口口 |②---|
口口口口 |----|
8
口口口口 |①---|
口口①② |----|
口口口口 |②---|
口口口口 |----|
9
口③③口 |①---|
口②②口 |----|
口①①口 |②---|
口口口口 |③---|
10
口口口口 |①---|
①口口② |②---|
口③口口 |③---|
口口④口 |④---|
11
口口口口 |①---|
①口口② |②---|
口口③口 |③---|
口④口口 |④---|
12
口口口口 |①---|
①口口② |②---|
口③口口 |③---|
口口④口 |④---|
13
口口口口 |①---|
①口口② |②---|
口口③口 |③---|
口④口口 |④---|
14
口口口口 |①---|
①口口② |②---|
口③口口 |③---|
口口④口 |④---|
15
口口口口 |①---|
①口口② |②---|
口口③口 |③---|
口④口口 |④---|
16
口口口口 |①---|
①口口② |②---|
口③口口 |③---|
口口④口 |④---|
17
口口口口 |①---|
①口口② |②---|
口口③口 |③---|
口④口口 |④---|
18
口口口口 |----|
口口口口 |----|
口口口口 |----|
口口口口 |----|
19
①口口口 |①---|
②口口口 |②---|
③④口口 |③---|
口口口口 |④---|
20
口口①口 |①---|
口口②口 |②---|
口口③④ |③---|
口口口口 |④---|
21
口①口口 |①---|
口②口口 |②---|
口③④口 |③---|
口口口口 |④---|
22
口①口口 |①---|
口口②口 |②---|
口③口口 |③---|
口口口口 |----|
23
①口口口 |①---|
②口口口 |②---|
③④口口 |③---|
口口口口 |④---|
24
口口①口 |①---|
口口②口 |②---|
口口③④ |③---|
口口口口 |④---|
25
口①口口 |①---|
口②口口 |②---|
口③④口 |③---|
口口口口 |④---|
26
③口口③ |①---|
口②②口 |--②-|
口口口口 |--③-|
口①①口 |----|
27
口①②口 |①---|
口口口③ |②---|
口口口④ |③---|
口口口口 |④---|
28
口口口口 |①---|
口①②口 |②---|
口③④口 |③---|
口口口口 |④---|
29
口口口口 |①---|
④口口口 |②---|
③口口口 |③---|
口②①口 |④---|
30
口口口口 |①---|
口①②口 |②---|
口③④口 |③---|
口口口口 |④---|
31
口①②口 |①---|
口口口③ |②---|
口口口④ |③---|
口口口口 |④---|
32
口口口口 |①---|
口③④口 |②---|
口①②口 |③---|
口口口口 |④---|
33
②①①② |①---|
口口口口 |----|
口口口口 |②---|
口口口口 |----|
34
口口口口 |①---|
口①①口 |----|
口①①口 |----|
口口口口 |----|
35
口口口口 |①---|
④③口口 |②---|
口口②① |③---|
口口口口 |④---|
36
①②③④ |①---|
口口口口 |②---|
口口口口 |③---|
口口口口 |④---|
37
口口口口 |①---|
①②口口 |②---|
口③④口 |③---|
口口口口 |④---|
38
口口口口 |①---|
口口口口 |②---|
口口口① |③---|
口②③口 |----|
39
口口口口 |①---|
④③口口 |②---|
口口②① |③---|
口口口口 |④---|
40
①②③④ |①---|
口口口口 |②---|
口口口口 |③---|
口口口口 |④---|
41
口口口口 |①---|
①②口口 |②---|
口③④口 |③---|
口口口口 |④---|
42
口③③口 |①---|
口②②口 |----|
口口口口 |②---|
口①①口 |③---|
43
口口口口 |①---|
口④③口 |②---|
口②①口 |③---|
口口口口 |④---|
44
②④③① |①---|
口口口口 |②---|
口口口口 |③---|
口口口口 |④---|
45
口口口口 |①---|
口②①口 |②---|
口④③口 |③---|
口口口口 |④---|
46
口④口口 |①---|
口口③口 |②---|
②口口① |③---|
②口口① |④---|
47
口口口口 |①---|
②④③① |②---|
口口口口 |③---|
口口口口 |④---|
48
口口口口 |①---|
口口口口 |②---|
口②①口 |③---|
口④③口 |④---|
49
口口口口 |①---|
④口口③ |②---|
②口口① |③---|
口口口口 |④---|
50
口①①口 |①---|
口口口口 |--②-|
口②②口 |--③-|
口③③口 |----|
51
口口口口 |①---|
①口口② |②---|
口③口口 |③---|
口口④口 |④---|
52
口口口口 |①---|
①口口② |②---|
口口③口 |③---|
口④口口 |④---|
53
口口口口 |①---|
①口口② |②---|
口③口口 |③---|
口口④口 |④---|
54
口口口口 |①---|
①口口② |②---|
口口③口 |③---|
口④口口 |④---|
55
口口口口 |①---|
①口口② |②---|
口③口口 |③---|
口口④口 |④---|
56
口口口口 |①---|
①口口② |②---|
口口③口 |③---|
口④口口 |④---|
57
①口口② |①---|
口③口口 |②---|
口口④口 |③---|
口口口口 |④---|
58
①口口② |①---|
口口③口 |②---|
口④口口 |③---|
口口口口 |④---|
59
①②口口 |----|
口口口口 |----|
口口口口 |①---|
口口口口 |②---|
60
口口①② |①---|
口口口口 |②---|
口③④口 |③---|
口口口口 |④---|
61
④③口口 |①---|
口口口口 |②---|
口口口口 |③---|
口①②口 |④---|
62
口口①② |①---|
口口口口 |②---|
口④口口 |③---|
口口③口 |④---|
63
②③口口 |①---|
口口①口 |----|
口口口口 |②---|
口口口口 |③---|
64
口口①② |①---|
口口口口 |②---|
口③④口 |③---|
口口口口 |④---|
65
④③口口 |①---|
口口口口 |②---|
口口口口 |③---|
口①②口 |④---|
66
口口①② |①---|
口口口口 |②---|
口③③口 |③---|
口口口口 |----|
67
口②②口 |①---|
口①①口 |②---|
口③④口 |③---|
口口口口 |④---|
68
③口口④ |①---|
①口口② |②---|
口口口口 |③---|
口口口口 |④---|
69
口①②口 |①---|
口③④口 |②---|
口口口口 |③---|
口口口口 |④---|
70
口口口口 |①---|
口口口口 |②---|
③①②④ |③---|
③口口④ |④---|
71
口口②口 |①---|
③①口④ |②---|
口口口口 |③---|
口口口口 |④---|
72
口口口口 |①---|
口①②口 |②---|
口③④口 |③---|
口口口口 |④---|
73
口口口口 |①---|
口口口口 |②---|
③口口④ |③---|
口①②口 |④---|
74
口③③口 |①---|
①口口② |②---|
口④④口 |③---|
口口口口 |--④-|
75
口口口口 |--①-|
口口口口 |----|
口口口口 |----|
口①①口 |----|


不确定度: 0

最終更新:2012年11月11日 17:57