TRUE♥LOVE
jun feat. Schanita

ADVANCED

Level: 7
BPM: 188
Notes: 439

1
口口口口 |----|
口口口口 |----|
口口口口 |----|
口口口口 |----|
2
口①②口 |①---|
口③④口 |②---|
⑤口口口 |③---|
口口口口 |④-⑤-|
3
口口口口 |--①-|
口口口口 |②-③-|
口口①口 |--④-|
②④③口 |----|
4
⑥①口口 |①-②-|
口口②口 |③-④-|
口③④口 |--⑤-|
口⑤口口 |--⑥-|
5
口①口口 |①-②-|
口②③口 |③-④-|
口口④口 |----|
口口口口 |----|
6
口①②口 |①---|
口③④口 |②---|
口⑤口口 |③---|
口口口口 |④-⑤-|
7
口口口口 |--①-|
⑦⑥⑤④ |②-③-|
口口口① |④-⑤-|
口②口③ |⑥-⑦-|
8
口③②① |--①-|
口口口口 |②-③-|
口口口口 |----|
④口口④ |--④-|
9
口⑤⑤口 |①-②-|
②口口② |--③-|
①④④① |④---|
口③③口 |⑤---|
10
①口口口 |①---|
口口口② |②---|
口③④口 |③---|
口④③口 |④---|
11
口口口② |①---|
①口口口 |②---|
口③④口 |③---|
口④③口 |④---|
12
①口口口 |①---|
口口口② |②---|
口③④口 |③---|
口④③口 |④---|
13
口口②② |①---|
①口口口 |②---|
口③口③ |③---|
口④口④ |④---|
14
①口口口 |①---|
口口口② |②---|
口③④口 |③---|
口④③口 |④---|
15
口口口② |①---|
①口口口 |②---|
口③④口 |③---|
口④③口 |④---|
16
①①口口 |①---|
口口口② |②---|
口③④口 |③---|
口④③口 |④---|
17
口口口② |①---|
①①口口 |②---|
口③④口 |③---|
口④③口 |④---|
18
口①①口 |①---|
口①①口 |----|
口口口口 |----|
口口口口 |----|
19
①口口口 |①-②-|
②口口口 |③-④-|
③④口口 |--⑤-|
口口口⑤ |----|
20
口口①口 |①-②-|
口口②口 |③-④-|
口口③④ |--⑤-|
口口口⑤ |----|
21
①②③④ |①-②-|
口口⑥口 |③-④-|
口口口⑤ |--⑤-|
口口口口 |--⑥-|
22
口口口口 |①-②-|
口①口口 |③-④-|
③②口口 |----|
④口口口 |----|
23
①口口口 |①-②-|
②口口口 |③-④-|
③④口口 |--⑤-|
口口口⑤ |----|
24
口口①口 |①-②-|
口口②口 |③-④-|
口口③④ |--⑤-|
口口口⑤ |----|
25
①②③④ |①-②-|
口口口口 |③-④-|
⑥口口⑤ |--⑤-|
口口口口 |--⑥-|
26
口口口口 |①-②-|
口口口口 |--③-|
口①②口 |--④-|
口口③④ |----|
27
①①②② |①---|
③③④④ |②---|
⑤口口口 |③---|
口口口口 |④-⑤-|
28
口口口口 |--①-|
口口口口 |②-③-|
口口⑥⑤ |④-⑤-|
①②③④ |⑥---|
29
①①②② |①---|
③③④④ |②---|
⑤口口口 |③---|
口口口口 |④-⑤-|
30
口口口口 |--①-|
口口口口 |②-③-|
口口口④ |--④-|
①②③口 |----|
31
①①②② |①---|
③③④④ |②---|
⑤口口口 |③---|
口口口口 |④-⑤-|
32
口口口口 |--①-|
口口口口 |--②-|
口口①⑥ |③-④-|
②③④⑤ |⑤-⑥-|
33
①③②① |①---|
口口口口 |--②-|
口口口口 |③---|
口口口口 |----|
34
口口口口 |①---|
口①①口 |----|
口①①口 |----|
口①口口 |----|
35
①②口口 |①---|
⑥⑤④③ |②---|
口口口口 |③-④-|
口口口口 |⑤-⑥-|
36
口口口口 |--①-|
口口口口 |②-③-|
口①②③ |--④-|
口口④口 |----|
37
①口口② |①---|
口⑤④③ |②-③-|
⑦⑥口口 |④-⑤-|
口口口口 |⑥-⑦-|
38
口口口口 |①-②-|
口口口口 |③-④-|
口口口口 |----|
④③②① |----|
39
①②口口 |①---|
⑥⑤④③ |②---|
口口口口 |③-④-|
口口口口 |⑤-⑥-|
40
口口口口 |--①-|
口口口口 |②-③-|
口①②③ |--④-|
口口④口 |----|
41
①口②③ |①---|
口④口口 |②-③-|
口口⑤口 |--④-|
⑥口口⑥ |⑤-⑥-|
42
⑤口口⑤ |①-②-|
②口④② |--③-|
①④口① |④---|
口③③口 |⑤---|
43
口口口口 |①---|
④⑥口④ |②-③-|
①⑤③① |④---|
口口②口 |⑤-⑥-|
44
①口③① |①---|
口口②口 |②-③-|
④⑥口④ |④---|
口⑤口口 |⑤-⑥-|
45
④⑥口④ |①---|
①⑤③① |②-③-|
口口②口 |④---|
口口口口 |⑤-⑥-|
46
口口④口 |①---|
③口口口 |②-③-|
口②②口 |--④-|
口①①口 |----|
47
口口口口 |①---|
④⑥口④ |②-③-|
①⑤③① |④---|
口口②口 |⑤-⑥-|
48
①口③① |①---|
口口②口 |②-③-|
④⑥口④ |④---|
口⑤口口 |⑤-⑥-|
49
④⑥口④ |①---|
①⑤③① |②-③-|
口口②口 |④---|
口口口口 |⑤-⑥-|
50
④口口④ |①-②-|
③口口③ |--③-|
口②②口 |--④-|
口①①口 |----|
51
口口口口 |----|
口口口口 |----|
口口口口 |----|
口口口口 |----|
52
口口口口 |----|
口口①口 |----|
口①口① |----|
口口①口 |①---|
53
口口口口 |----|
口①口口 |①---|
①口②③ |②---|
口①口口 |③---|
54
口口口口 |----|
口口口口 |----|
①口口口 |----|
①口口口 |①---|
55
口口口口 |①---|
口口①口 |----|
口①①③ |②---|
口①口② |③---|
56
口口口口 |----|
口①①口 |----|
口①口口 |①---|
口①口口 |----|
57
口口口口 |----|
口口口口 |①---|
口口口口 |②---|
②③口① |③---|
58
口口口口 |①---|
口①口① |----|
口①①① |----|
口口①口 |----|
59
口①②口 |----|
口口口口 |----|
口口口口 |①---|
口口口口 |②---|
60
口口口口 |①---|
口①②口 |②-③-|
③口④口 |--④-|
⑤口⑥口 |⑤-⑥-|
61
口②口口 |--①-|
口口③口 |----|
口④⑤口 |②-③-|
口①口口 |④-⑤-|
62
②③口口 |--①-|
口④⑤口 |--②-|
口口⑥口 |③-④-|
口①口口 |⑤-⑥-|
63
口①②口 |----|
口口口口 |----|
口口口口 |①---|
口口口口 |②---|
64
口口口口 |①---|
口①②口 |②-③-|
口③口④ |--④-|
口⑤口⑥ |⑤-⑥-|
65
②③口口 |--①-|
口④⑤口 |----|
口口口口 |②-③-|
口口①口 |④-⑤-|
66
口口口口 |--①-|
④⑤口④ |--②-|
③口⑤③ |③-④-|
口①②口 |--⑤-|
67
口②②口 |①---|
口口①口 |②---|
③①⑤③ |③---|
口口④口 |④-⑤-|
68
④口⑥④ |①---|
①③⑤① |②-③-|
口②口口 |④---|
口口口口 |⑤-⑥-|
69
口口口口 |①---|
④口⑥④ |②-③-|
①③⑤① |④---|
口②口口 |⑤-⑥-|
70
①③口① |①---|
⑥②口口 |②-③-|
口⑤⑤口 |④---|
口④④口 |⑤-⑥-|
71
口口①口 |--①-|
口口口口 |----|
②口④② |②---|
口口③口 |③-④-|
72
④口⑥④ |①---|
①③⑤① |②-③-|
口②口口 |④---|
口口口口 |⑤-⑥-|
73
口口口口 |①---|
④口⑥④ |②-③-|
①③⑤① |④---|
口②口口 |⑤-⑥-|
74
①③口① |①---|
⑥②口⑥ |②-③-|
口⑤⑤口 |④-⑤-|
口④④口 |--⑥-|
75
①口口① |--①-|
口口口口 |----|
口口口口 |----|
口口口口 |----|


不确定度: 0

最終更新:2012年11月11日 17:56