TRUE♥LOVE
jun feat. Schanita

EXTREME

Level: 9
BPM: 188
Notes: 596

1
口口口口 |----|
口口口口 |----|
口口口口 |----|
口口口口 |----|
2
①口口① |①---|
口②④口 |②---|
口③③⑤ |③---|
口口口口 |④-⑤-|
3
口口口口 |--①-|
口口口口 |②-③-|
①口口口 |--④-|
②③口④ |----|
4
①口⑥② |①-②-|
口口口口 |③-④-|
口③④口 |--⑤-|
口⑤口口 |--⑥-|
5
口④口口 |①-②-|
口①口口 |③-④-|
②口口③ |----|
口口口口 |----|
6
口口口口 |①---|
口③③⑤ |②---|
口②④口 |③---|
①口口① |④-⑤-|
7
口③②① |--①-|
口⑥口口 |②-③-|
⑦口⑤④ |④-⑤-|
口口口口 |⑥-⑦-|
8
口②口口 |--①-|
③口①口 |②-③-|
口口口口 |----|
口④④口 |--④-|
9
⑤口口⑤ |①-②-|
口②②口 |--③-|
④①①④ |④---|
③口口③ |⑤---|
10
⑨⑧⑦⑥ |①-②-|
⑩①④⑤ |③-④-|
⑪③②口 |⑤-⑥⑦|
口口口口 |⑧⑨⑩⑪|
11
⑨⑧⑦⑥ |①-②-|
⑩①④⑤ |③-④-|
⑪③②口 |⑤-⑥⑦|
口口口口 |⑧⑨⑩⑪|
12
⑨⑧⑦⑥ |①-②-|
⑩①④⑤ |③-④-|
⑪③②口 |⑤-⑥⑦|
口口口口 |⑧⑨⑩⑪|
13
口④④口 |①---|
④①口④ |②---|
口②③② |③---|
口③②③ |④---|
14
①口口③ |①-②-|
⑪②④⑩ |③-④-|
⑨口口⑧ |⑤-⑥⑦|
⑦⑤口⑥ |⑧⑨⑩⑪|
15
①口口③ |①-②-|
⑪②④⑩ |③-④-|
⑨口口⑧ |⑤-⑥⑦|
⑦⑤口⑥ |⑧⑨⑩⑪|
16
①①口③ |①-②-|
⑪②④⑩ |③-④-|
⑨口口⑧ |⑤-⑥⑦|
⑦⑤口⑥ |⑧⑨⑩⑪|
17
①①口③ |①-②-|
⑪②④⑩ |③-④-|
⑨口口⑧ |⑤-⑥⑦|
⑦⑤口⑥ |⑧⑨⑩⑪|
18
口①①口 |①---|
口口口口 |----|
口口口口 |----|
口口口口 |----|
19
①口口口 |①-②-|
口口口④ |③-④-|
③⑤⑤口 |--⑤-|
口口口② |----|
20
口⑤⑤② |①-②-|
③口口口 |③-④-|
口口口④ |--⑤-|
①口口口 |----|
21
①口口⑥ |①-②-|
口口口④ |③-④-|
③口口口 |--⑤-|
⑤口口② |--⑥-|
22
口①口口 |①-②-|
口口②口 |③-④-|
口③口口 |----|
口口④口 |----|
23
①口口口 |①-②-|
口口口④ |③-④-|
③⑤⑤口 |--⑤-|
口口口② |----|
24
口⑤⑤② |①-②-|
③口口口 |③-④-|
口口口④ |--⑤-|
①口口口 |----|
25
①口口⑥ |①-②-|
口口口④ |③-④-|
③口口口 |--⑤-|
⑤口口② |--⑥-|
26
口①①口 |①-②-|
②口②口 |--③-|
口③口③ |--④-|
口④④口 |----|
27
①⑤口③ |①---|
口口②② |②---|
①口口③ |③---|
④④口口 |④-⑤-|
28
口口口口 |--①-|
①②③口 |②-③-|
口④⑤口 |④-⑤-|
口口⑥口 |⑥---|
29
③⑤口① |①---|
②②口口 |②---|
③口口① |③---|
口口④④ |④-⑤-|
30
口口口口 |--①-|
①②③口 |②-③-|
口口口口 |--④-|
口④④口 |----|
31
①⑤口③ |①---|
口②口② |②---|
口①③口 |③---|
④口④口 |④-⑤-|
32
口口口口 |--①-|
①②③口 |②-③-|
口④⑤口 |④-⑤-|
口⑥⑦口 |⑥-⑦-|
33
口①①口 |①---|
②口③口 |--②-|
口口口口 |③---|
口口口口 |----|
34
口①①口 |①---|
口①口① |----|
口①①口 |----|
口①口口 |----|
35
③①②口 |①---|
口⑤口口 |②---|
口口④口 |③-④-|
口口口⑥ |⑤-⑥-|
36
④口口④ |--①-|
口口②口 |②-③-|
口③口口 |--④-|
①口口口 |----|
37
口①②口 |①-②-|
⑧③口口 |③-④-|
⑥口口⑦ |⑤-⑥-|
④口口⑤ |⑦-⑧-|
38
口④④口 |①-②-|
口③③口 |③-④-|
口②②口 |----|
口①①口 |----|
39
①③口② |①---|
口口⑤口 |②---|
口口口④ |③-④-|
⑥口口口 |⑤-⑥-|
40
④口口④ |--①-|
②口口口 |②-③-|
口③口口 |--④-|
口口①口 |----|
41
⑥①②⑤ |①---|
④口口③ |②-③-|
口口口口 |--④-|
口口口口 |⑤-⑥-|
42
⑤口口⑤ |①-②-|
口③③口 |--③-|
①④④① |④---|
口②②口 |⑤---|
43
口②⑥口 |①-②-|
①⑦③① |③-④-|
⑤口口口 |⑤-⑥-|
④口口⑧ |⑦-⑧-|
44
口⑥口① |①-②-|
口口⑦⑤ |③-④-|
口②③口 |⑤-⑥-|
⑧④口口 |⑦-⑧-|
45
⑤口②口 |①-②-|
口③⑥口 |③-④-|
①⑦口口 |⑤-⑥-|
口口⑧④ |⑦-⑧-|
46
③口②② |①---|
口③口口 |②-③-|
①④①④ |--④-|
口①口④ |----|
47
口②⑥口 |①-②-|
①⑦③① |③-④-|
⑤口口口 |⑤-⑥-|
④口口⑧ |⑦-⑧-|
48
口⑥口① |①-②-|
口口⑦⑤ |③-④-|
口②③口 |⑤-⑥-|
⑧④口口 |⑦-⑧-|
49
⑤口②口 |①-②-|
口③⑥口 |③-④-|
①⑦口口 |⑤-⑥-|
口口⑧④ |⑦-⑧-|
50
④④④④ |①-②-|
①③口② |--③-|
②口③① |--④-|
口口口口 |----|
51
⑩⑨⑧⑦ |①-②-|
⑪⑤⑤⑥ |③-④-|
口①③口 |⑤-⑥⑦|
①②④③ |⑧⑨⑩⑪|
52
⑩⑨⑧⑦ |①-②-|
⑪⑤⑤⑥ |③-④-|
口①③口 |⑤-⑥⑦|
①②④③ |⑧⑨⑩⑪|
53
⑩⑨⑧⑦ |①-②-|
⑪⑤⑤⑥ |③-④-|
口①③口 |⑤-⑥⑦|
①②④③ |⑧⑨⑩⑪|
54
口口口口 |①---|
口口口④ |②---|
④①②④ |③---|
④②③③ |④---|
55
③④②① |①-②-|
⑩③①⑪ |③-④-|
⑧⑤⑤⑨ |⑤-⑥⑦|
⑥口口⑦ |⑧⑨⑩⑪|
56
③④②① |①-②-|
⑩③①⑪ |③-④-|
⑧⑤⑤⑨ |⑤-⑥⑦|
⑥口口⑦ |⑧⑨⑩⑪|
57
③④②① |①-②-|
⑩③①⑪ |③-④-|
⑧⑤⑤⑨ |⑤-⑥⑦|
⑥口口⑦ |⑧⑨⑩⑪|
58
③④②① |①-②-|
⑩③①⑪ |③-④-|
⑧⑤⑤⑨ |⑤-⑥⑦|
⑥口口⑦ |⑧⑨⑩⑪|
59
①口口① |----|
口②口口 |----|
口口口口 |①---|
口口口口 |②---|
60
口口口口 |①---|
口口②口 |②-③-|
④①①③ |--④-|
⑥口口⑤ |⑤-⑥-|
61
②口口③ |--①-|
口口口口 |----|
口④⑤口 |②-③-|
口口①口 |④-⑤-|
62
口⑥②口 |--①-|
口③口口 |--②-|
④口口⑤ |③-④-|
口①口口 |⑤-⑥-|
63
口口口口 |----|
口口口口 |----|
口②口口 |①---|
①口口① |②---|
64
口⑥⑤口 |①---|
④①①③ |②-③-|
口口②口 |--④-|
口口口口 |⑤-⑥-|
65
口口口口 |--①-|
③口口② |----|
⑤①①④ |②-③-|
口口口口 |④-⑤-|
66
口口口口 |--①-|
④⑤⑤④ |--②-|
口③③口 |③-④-|
②口口① |--⑤-|
67
②④口② |①---|
③口⑤③ |②---|
①口口① |③-④-|
⑥口口口 |⑤-⑥-|
68
口口②⑤ |①-②-|
口③口口 |③-④-|
①⑥⑦口 |⑤-⑥-|
口⑧口④ |⑦-⑧-|
69
口②⑥口 |①-②-|
口⑦③① |③-④-|
⑤口口口 |⑤-⑥-|
④口口⑧ |⑦-⑧-|
70
①口口口 |①-②-|
口口②口 |③-④-|
口③口口
口口④口

⑦口⑥⑥
口⑦口口
⑤口⑤口 |⑤---|
口⑤口口 |⑥-⑦-|
71
口③口口 |--①-|
②口④② |----|
口①口① |②-③-|
⑤口口① |④-⑤-|
72
口口②⑤ |①-②-|
口③口口 |③-④-|
①⑥⑦口 |⑤-⑥-|
口⑧口④ |⑦-⑧-|
73
口②⑥口 |①-②-|
口⑦③① |③-④-|
⑤口口口 |⑤-⑥-|
④口口⑧ |⑦-⑧-|
74
①口口口 |①-②-|
⑤⑦②⑥ |③-④-|
⑥③⑦⑤ |⑤-⑥-|
口口④口 |--⑦-|
75
①①①① |--①-|
口口口口 |----|
口口口口 |----|
口口口口 |----|


不确定度: 0

最終更新:2012年11月11日 17:55