Special One
kors k feat. Suzuyo Miyamoto

BASIC

Level: 4
BPM: 128
Notes: 228

1
口口口口 |----|
口口口口 |----|
口口口口 |----|
口口口口 |----|
2
口①②口 |①---|
口③口口 |----|
口口口口 |②---|
口口口口 |③---|
3
口口口口 |①---|
口口口口 |----|
口口①口 |②---|
③②②③ |③---|
4
口口口口 |①---|
口②口口 |----|
口①①口 |----|
口口口口 |--②-|
5
口口①口 |----|
口口口口 |----|
口口口口 |①---|
口口口口 |----|
6
口⑤口口 |①---|
口④口口 |----|
口③口口 |②-③-|
口②①口 |④-⑤-|
7
口口①口 |----|
口口②口 |①---|
口口③口 |②---|
口口口口 |③---|
8
口口口口 |①---|
口口口④ |②---|
口口③② |③---|
口口①口 |④---|
9
④④③② |①---|
口口①口 |②---|
口口口口 |③---|
口口口口 |④---|
10
口口口口 |①---|
口口④口 |②---|
②③口口 |③--④|
口①口口 |----|
11
②口口③ |①---|
口①④口 |②---|
口口口口 |③---|
口口口口 |④---|
12
口口口口 |①---|
口①口口 |②---|
口口②③ |③---|
口口④口 |④---|
13
口④口口 |①---|
口③口口 |②---|
口②口口 |③---|
口①口口 |④---|
14
口口口口 |①---|
口⑤④口 |②---|
②③口口 |③--④|
口①口口 |--⑤-|
15
①口口② |----|
口口③口 |①---|
口口口口 |②---|
口口口口 |③---|
16
口口口口 |①---|
口①口口 |②---|
口口②③ |③---|
口口④口 |④---|
17
口口口口 |①---|
③④口口 |②---|
②②口口 |③---|
①①口口 |④---|
18
①①口④ |①---|
口口口③ |②---|
口口口② |③---|
口口口口 |④---|
19
口口①口 |①---|
口口②口 |②---|
口口③口 |③---|
口口口口 |----|
20
口口口口 |①---|
口口口口 |----|
①口②口 |②---|
口口口口 |----|
21
口④④口 |①---|
口口③口 |②---|
口②口口 |③---|
口①口口 |④---|
22
口口口口 |①---|
①口②口 |----|
口口口口 |②---|
口口口口 |----|
23
口①口口 |①---|
口②口口 |②---|
口③口口 |③---|
口口口口 |----|
24
口口口口 |①---|
口口口口 |----|
口②口① |②---|
口口口口 |----|
25
口④④口 |①---|
口③口口 |②---|
口口②口 |③---|
口口①口 |④---|
26
①口口① |①---|
②④③② |②---|
口⑤⑤口 |③--④|
口口口口 |--⑤-|
27
口口口口 |----|
口口口口 |①---|
口口口③ |②---|
口口①② |③---|
28
口②②口 |①---|
口④③① |②---|
口⑤⑤口 |③--④|
口口口口 |--⑤-|
29
口口口口 |----|
口口口口 |①---|
③口口口 |②---|
②①口口 |③---|
30
口②②口 |①---|
①③④口 |②---|
口⑤⑤口 |③--④|
口口口口 |--⑤-|
31
口口口口 |----|
口口口口 |①---|
口口口③ |②---|
口口①② |③---|
32
口口口口 |①---|
②口口① |----|
口口口口 |②---|
口口口口 |----|
33
口③③口 |①---|
口②①口 |②---|
口口口口 |③---|
口口口口 |----|
34
口口口口 |①---|
口口口口 |----|
③①①③ |②---|
口②②口 |③---|
35
口③④口 |①-②-|
口口口口 |-③-④|
⑤②①⑤ |----|
口口口口 |⑤---|
36
⑤④③口 |①-②-|
⑥口口口 |-③-④|
口①②口 |----|
口口口口 |⑤-⑥-|
37
口口口口 |①---|
口②③口 |②---|
①④④口 |③---|
口口口口 |④---|
38
口口口口 |①---|
口口口口 |②---|
①口口①
口②②口

口口口口
口口口口
④口口④ |③---|
③口口③ |④---|
39
口口口口 |①-②-|
⑥③④⑥ |-③-④|
⑤②①⑤ |----|
口口口口 |⑤-⑥-|
40
①②②① |①-②-|
口③④口 |-③-④|
口口口口
口口口口

口口口⑤
口口口⑥
口口口口 |----|
口口口口 |⑤-⑥-|
41
口口口口 |①---|
口③②口 |②---|
口④④① |③---|
口口口口 |④---|
42
口口口口 |①---|
口口口口 |②---|
①④④① |③---|
③②②③ |④---|
43
口口口口 |①---|
口①①口 |②---|
口口口口
②口口口

口口口口
口口④口
口③口口 |③---|
口口口口 |④---|
44
②口口③ |①---|
口①④口 |②---|
口口口口 |③---|
口口口口 |④---|
45
口口口口 |①---|
口①口口 |②---|
口口②③ |③---|
口口④口 |④---|
46
口④口口 |①---|
口③口口 |②---|
口②口口 |③---|
口①口口 |④---|
47
口口口口 |①---|
口⑤④口 |②---|
②③口口 |③--④|
口①口口 |--⑤-|
48
①口口② |----|
口口③口 |①---|
口口口口 |②---|
口口口口 |③---|
49
口口口口 |①---|
口①口口 |②---|
口口②③ |③---|
口口④口 |④---|
50
口口口口 |①---|
③④④③ |②---|
②②口口 |③---|
①①口口 |④---|
51
①①①① |①---|
口口口口 |----|
口口口口 |----|
口口口口 |----|


不确定度: 0

最終更新:2012年11月11日 17:53