Special One
kors k feat. Suzuyo Miyamoto

ADVANCED

Level: 5
BPM: 128
Notes: 319

1
口口口口 |----|
口口口口 |----|
口口口口 |----|
口口口口 |----|
2
口①②口 |①---|
口口③口 |----|
口口④口 |②-③-|
口口⑤口 |④-⑤-|
3
④④口口 |--①-|
③②口口 |②---|
口①口口 |③---|
口口口口 |④---|
4
口口①① |①---|
口口口② |②---|
口口③口 |③---|
⑤⑤口④ |④-⑤-|
5
口口口口 |----|
①①口口 |----|
口口口口 |①---|
口口口口 |----|
6
⑤口口口 |①---|
口④口口 |----|
③口口口 |②-③-|
口②①口 |④-⑤-|
7
口①②口 |--①-|
口口③③ |②---|
口口④④ |③---|
口口口口 |④---|
8
口口口口 |①---|
④⑤⑤口 |②---|
②③口口 |③---|
口①口口 |④-⑤-|
9
②口口② |----|
口口口口 |----|
①口口① |①---|
口口口口 |--②-|
10
口①①口 |①-②-|
②③④口 |③-④-|
口⑥口⑤ |⑤--⑥|
口口⑦口 |--⑦-|
11
口口②口 |--①-|
③③①口 |②---|
口口④④ |③---|
口口口口 |④---|
12
口口口口 |--①-|
口口口口 |②-③-|
口⑤口④ |④-⑤-|
①②③口 |----|
13
口口口口 |①---|
①②③④ |②---|
口口口口 |③---|
口口口口 |④---|
14
⑤口口口 |--①-|
④口口口 |②---|
③口②① |③--④|
口口口口 |--⑤-|
15
口口口⑦ |--①-|
口口口⑥ |②-③-|
口口口⑤ |④-⑤-|
①②③④ |⑥-⑦-|
16
口口口口 |①---|
口口①口 |②-③-|
②③口口 |----|
口口口口 |----|
17
口④④口 |①---|
口③③口 |②---|
口②②口 |③---|
口①①口 |④---|
18
①口口① |①-②-|
口②③口 |③-④-|
口④⑤口 |⑤--⑥|
口⑥⑥口 |----|
19
③口口③ |①---|
②口口② |②---|
①口口① |③---|
口口口口 |----|
20
口口口口 |①---|
口③②① |②---|
口③②① |③---|
口口口口 |----|
21
口④④口 |①---|
口③③口 |②---|
口口口口 |③---|
①②②① |④---|
22
口口口口 |--①-|
口①②口 |②-③-|
口③④口 |④--⑤|
口⑤⑤口 |----|
23
③口口③ |①---|
②口口② |②---|
①口口① |③---|
口口口口 |----|
24
口口口口 |①---|
口③②① |②---|
口③②① |③---|
口口口口 |----|
25
口④④口 |①---|
口③③口 |②---|
口口口口 |③---|
①②②① |④---|
26
口③③口 |①---|
①④④② |②---|
口⑤⑤口 |③--④|
口口口口 |--⑤-|
27
口口口口 |----|
口口口口 |①---|
口口口③ |②---|
②口口① |③---|
28
口③③口 |①---|
①④④② |②---|
①⑤⑤口 |③--④|
口口口口 |--⑤-|
29
口口口口 |----|
口口口口 |①---|
口口口③ |②---|
②口口① |③---|
30
口③③口 |①---|
①④④② |②---|
①⑤⑤口 |③--④|
口口口口 |--⑤-|
31
口口口口 |----|
口口口口 |①---|
口口口③ |②---|
②口口① |③---|
32
口口口④ |①---|
③口口② |②---|
①口口口 |③---|
口口口口 |④---|
33
①口口口 |①---|
口③③口 |②---|
口②②口 |③---|
口口口口 |----|
34
口口口口 |①---|
②口口② |----|
①口口① |②---|
口③③口 |③---|
35
①②口口 |①-②-|
口口③④ |-③-④|
口口口口 |----|
口⑤⑤口 |⑤---|
36
①②口口 |①-②-|
口口③④ |-③-④|
口⑤⑤口 |----|
口口口口 |⑤---|
37
口②②口 |①---|
口①①口 |----|
口口口口 |②---|
口口口口 |----|
38
口口口口 |①--②|
②③④口 |-③-④|
口口口口 |----|
①⑤⑤① |⑤---|
39
③④口③ |①---|
②口⑤② |-②-③|
口①①口 |----|
口口口口 |④-⑤-|
40
⑥⑦②口 |①-②-|
口③口口 |③-④-|
口①④口 |⑤---|
口⑤口口 |⑥-⑦-|
41
口口①口 |①--②|
口口③② |--③-|
④④口口 |--④-|
口口口口 |----|
42
口口口口 |①---|
口口口口 |②---|
④③③④ |③---|
②①①② |④---|
43
口①①口 |①-②-|
口①①口 |③-④-|
口④口口
口②③口

口⑧口口
口⑥⑦口
口口⑤口 |⑤-⑥-|
口口口口 |⑦-⑧-|
44
口⑧口口 |①-②-|
口⑥⑦口 |③-④-|
口④⑤口 |⑤-⑥-|
①②③① |⑦-⑧-|
45
口口口口 |①-②-|
口⑥⑦口 |③-④-|
口④⑤口 |⑤-⑥-|
①②③① |⑦---|
46
④④④④ |①---|
③③③③ |②---|
②②②② |③---|
①①①① |④---|
47
口⑦口口 |--①-|
口⑤⑥口 |②-③-|
口③④口 |④-⑤-|
口①②口 |⑥-⑦-|
48
口⑧口口 |①-②-|
口⑥⑦口 |③-④-|
口④⑤口 |⑤-⑥-|
①②③① |⑦-⑧-|
49
口口口口 |①---|
口③③口 |②-③-|
口②②口 |----|
①口口① |----|
50
口④④口 |①---|
口③③口 |②---|
口②②口 |③---|
口①①口 |④---|
51
口口口口 |①---|
①口口① |----|
①口口① |----|
口口口口 |----|


不确定度: 0

最終更新:2012年11月11日 17:52