Special One
kors k feat. Suzuyo Miyamoto

EXTREME

Level: 7
BPM: 128
Notes: 469

1
口①口口 |----|
口口②口 |----|
口口口口 |----|
口口口口 |--①②|
2
口⑥⑤口 |①-②-|
④⑦⑦④ |③-④-|
③①口③ |-⑤⑥-|
②⑧⑧② |⑦-⑧-|
3
⑥⑤⑤口 |①-②③|
④⑦⑦④ |④-⑤-|
①③③① |⑥-⑦-|
②⑧⑧② |⑧---|
4
⑦⑧⑧④ |①-②-|
⑥口口③ |③-④-|
⑤①①② |⑤-⑥-|
口口口口 |⑦-⑧-|
5
口口口口 |①---|
口②②口 |②--③|
口③③口
口①①口

⑤⑤⑤⑤
口口口口
口口口口 |--④-|
口④④口 |--⑤-|
6
④口口④ |①---|
①①①① |②---|
口②②口 |----|
口③③口 |③-④-|
7
口口口口 |--①-|
口①②口 |②---|
③口口③ |③---|
口④④口 |④---|
8
口口口口 |①---|
口③③口 |②---|
②①①② |③---|
口口口口 |----|
9
口口口口 |①②③④|
⑥口口⑦ |⑤-⑥⑦|
③⑤⑤④
①口口②

⑧口口⑨
口口口口
⑫口口⑬ |-⑧⑨-|
⑩口口⑪ |⑩⑪⑫⑬|
10
口④口口 |①-②-|
口①①口 |③-④-|
口①①口
口②③口

口口⑤口
口⑦⑦口
口⑥⑥口 |⑤--⑥|
口口口口 |--⑦-|
11
口口口⑦ |--①-|
口口口⑥ |②-③-|
口口口⑤ |④-⑤-|
①②③④ |⑥-⑦-|
12
①⑦③⑤ |--①-|
口②⑥④ |②-③-|
口口口口 |④-⑤-|
口口口口 |⑥-⑦-|
13
口口口口 |--①-|
⑤⑤口口 |②-③-|
口③②① |④---|
④④口口 |⑤---|
14
口③④口 |--①-|
口⑥⑥口 |②-③-|
口⑤⑤口 |④--⑤|
口①②口 |--⑥-|
15
口口口⑦ |--①-|
口口口⑥ |②-③-|
口口口⑤ |④-⑤-|
①②③④ |⑥-⑦-|
16
口③③口 |①---|
口②②口 |②-③-|
口口口口 |----|
口①①口 |----|
17
④④④④ |①---|
③③③③ |②---|
②②②② |③---|
①①①① |④---|
18
口口口口 |①-②-|
口口④口 |③-④-|
口③②口
①①①①

口⑥⑥口
口⑤口口
口口⑧⑦ |⑤--⑥|
口口口口 |--⑦⑧|
19
口⑤⑤口 |①-②③|
口④④口 |-④-⑤|
②③口口
口口①口

口口口口
口口口口
⑥⑦口口 |----|
口口口口 |--⑥⑦|
20
口⑤⑤口 |①-②③|
口④④口 |-④-⑤|
口口③②
口①口口

口口口口
口口口口
⑥⑦⑦⑥ |----|
口口口口 |--⑥⑦|
21
④③③④ |①-②③|
⑥②②⑥ |-④--|
口口口口 |⑤---|
⑤①①⑤ |⑥---|
22
口口口口 |--①-|
口口③口 |②-③-|
口②①口
口口口口

口⑤⑤口
口④口口
口口⑦⑥ |④---|
口口口口 |⑤-⑥⑦|
23
口⑤⑤口 |①-②③|
口④④口 |-④-⑤|
②③口口
口口①口

口口口口
口口口口
⑥⑦口口 |----|
口口口口 |--⑥⑦|
24
口⑤⑤口 |①-②③|
口④④口 |-④-⑤|
口口③②
口①口口

口口口口
口口口口
⑥⑦⑦⑥ |----|
口口口口 |--⑥⑦|
25
④③③④ |①-②③|
⑥②②⑥ |-④--|
口口口口 |⑤---|
⑤①①⑤ |⑥---|
26
③④⑤口 |①---|
③④⑤口 |②---|
口②②口 |③--④|
口①①口 |--⑤-|
27
①口口② |--①-|
③口口④ |②-③-|
⑤口口⑥ |④-⑤-|
⑦口口口 |⑥-⑦-|
28
③④⑤口 |①---|
③④⑤口 |②---|
口②②口 |③--④|
口①①① |--⑤-|
29
①口口② |--①-|
③口口④ |②-③-|
⑤口口⑥ |④-⑤-|
⑦口口口 |⑥-⑦-|
30
③④⑤口 |①---|
③④⑤口 |②---|
口②②口 |③--④|
口①①① |--⑤-|
31
⑦口口口 |--①-|
⑤口口⑥ |②-③-|
③口口④ |④-⑤-|
①口口② |⑥-⑦-|
32
口②③① |①-②-|
口④⑤口 |③-④-|
口⑥⑦口 |⑤-⑥-|
口⑧口口 |⑦-⑧-|
33
口口口口 |①--②|
④口口④ |--③-|
③口口③ |④---|
②口①② |----|
34
口口口口 |----|
①②口口 |----|
口口口口 |----|
口口口口 |①-②-|
35
口口①口 |①-②③|
口口②③ |-④-⑤|
口口口④ |----|
口⑥⑥⑤ |⑥---|
36
口①口口 |①-②③|
③②口口 |-④-⑤|
④⑦⑦口 |----|
⑤⑥⑥口 |⑥-⑦-|
37
②③③② |①--②|
①④④① |--③-|
⑤口口⑤ |④--⑤|
⑥口口⑥ |--⑥-|
38
①口⑦⑥ |①-②③|
口②③口 |-④-⑤|
口⑤⑤口 |----|
口④④口 |⑥-⑦-|
39
口①口口 |①-②③|
口口口口 |-④-⑤|
③②⑤⑤
口口④④

⑥⑦口口
口口口口
口口口口 |----|
口口口口 |⑥-⑦-|
40
口口①口 |①-②③|
口口口口 |-④-⑤|
②③⑤⑤
口口④④

⑥⑦⑦⑥
口口口口
口口口口 |----|
口口口口 |⑥-⑦-|
41
口口口口 |①--②|
⑤①①口 |--③-|
⑤②②口 |--④-|
④③③④ |--⑤-|
42
口口口口 |--①-|
口①③⑤ |②-③-|
口②④⑤ |④---|
口口口口 |⑤---|
43
口①①口 |①-②-|
口口口口 |③-④-|
口④口口
口②③口

口⑧口口
口⑥⑦口
口口⑤口 |⑤-⑥-|
口口口口 |⑦-⑧-|
44
口⑧口口 |①-②-|
口⑥⑦口 |③-④-|
口④⑤口 |⑤-⑥-|
①②③① |⑦-⑧-|
45
口口口口 |①-②-|
口⑥⑦口 |③-④-|
口④⑤口 |⑤-⑥-|
①②③① |⑦---|
46
口①①口 |①-②-|
②口口② |③-④-|
口③③口
④口口④

⑤⑥⑥⑤
口⑥⑥口
⑤口口⑤ |⑤---|
口口口口 |⑥---|
47
口⑦口口 |--①-|
口⑤⑥口 |②-③-|
口③④口 |④-⑤-|
口①②口 |⑥-⑦-|
48
口⑧口口 |①-②-|
口⑥⑦口 |③-④-|
口④⑤口 |⑤-⑥-|
①②③① |⑦-⑧-|
49
口口口口 |①---|
口③③口 |②-③-|
口②②口 |----|
①口口① |----|
50
④④④④ |①---|
③③③③ |②---|
②②②② |③---|
①①①① |④---|
51
口口口口 |①---|
口口口口 |----|
口口口口 |----|
①①①① |----|


不确定度: 0

最終更新:2012年11月11日 17:51