Snow Goose
Mutsuhiko Izumi

BASIC

Level: 5
BPM: 200
Notes: 326

1
口口口口 |----|
口口口口 |----|
口口口口 |----|
口口口口 |----|
2
口口口口 |①---|
口口口口 |②---|
口口口口 |③---|
④③②① |④---|
3
口口口口 |①---|
口口口口 |②---|
①②③④ |③---|
口口口口 |④---|
4
口口口口 |①---|
④③②① |②---|
口口口口 |③---|
口口口口 |④---|
5
①②③④ |①---|
口口口口 |②---|
口口口口 |③---|
口口口口 |④---|
6
口口口口 |①---|
口口口① |②---|
口口口② |③---|
④④④③ |④---|
7
口口口口 |①---|
①口口② |②---|
③口口④ |③---|
口口口口 |④---|
8
口①①口 |①---|
口②②口 |②---|
口③③口 |③---|
口④④口 |④---|
9
口口口口 |①---|
④口口③ |②---|
②口口① |③---|
口口口口 |④---|
10
口①①口 |①---|
口②②口 |②---|
口③③口 |③---|
口④④口 |④---|
11
口口口口 |①---|
①③④② |②---|
①③④② |③---|
口口口口 |④---|
12
①①口② |①---|
口口口口 |--②-|
口口口口 |----|
口口口口 |----|
13
口口口口 |①---|
口口口口 |--②-|
口口口口 |----|
②口①① |----|
14
①①口② |①---|
口口口口 |--②-|
口口口口 |----|
口口口口 |----|
15
口④④口 |①---|
口③③口 |②---|
口②②口 |③---|
口①①口 |④---|
16
口口口口 |①---|
口口口口 |--②-|
口口口口 |----|
②口①① |----|
17
①①口② |①---|
口口口口 |--②-|
口口口口 |----|
口口口口 |----|
18
口口口口 |①---|
口口口口 |--②-|
口口口口 |----|
②口①① |----|
19
④④口口 |①---|
口③③口 |②---|
②②口口 |③---|
口①①口 |④---|
20
口口口口 |①---|
口③口口 |--②-|
口口②口 |----|
口口口① |③---|
21
①口口口 |①---|
口②口口 |----|
口口口口 |----|
口口口口 |②---|
22
口口口① |①---|
口口②口 |--②-|
口③口口 |----|
口口口口 |③---|
23
口口口口 |①---|
口口口口 |----|
口口口口 |----|
①口口口 |----|
24
①口口口 |①---|
口②口口 |--②-|
口口③口 |----|
口口口口 |③---|
25
口口口口 |①---|
口口②口 |----|
口③口口 |②---|
口口口① |③---|
26
口口①① |①---|
口口口口 |----|
口口口口 |----|
口口口口 |----|
27
口口口口 |①---|
口口口口 |----|
口口口口 |----|
①①口口 |----|
28
口口口口 |①---|
口口③口 |--②-|
口②口口 |----|
①口口口 |③---|
29
口口口① |①---|
口口口口 |----|
口口口口 |----|
口口口② |②---|
30
口口口① |①---|
口口②口 |--②-|
口③口口 |----|
口口口口 |③---|
31
口口口口 |①---|
口口口口 |----|
②②口口 |----|
①口口口 |②---|
32
口口口① |①---|
口口口② |--②-|
口口口口 |----|
口口口口 |----|
33
口口口口 |①---|
口口口口 |--②-|
②口口口 |----|
①口口口 |----|
34
口口口口 |①---|
口口口口 |----|
口口口口 |----|
口①①口 |----|
35
①口口① |①---|
口②②口 |--②-|
口口口口 |----|
口口口口 |----|
36
口口口口 |①---|
②口口① |--②-|
③口口口 |--③-|
口口口口 |----|
37
口口口口 |①---|
口口口口 |----|
口口口① |----|
口口口口 |----|
38
口口口口 |①---|
①口口② |--②-|
口口口③ |--③-|
口口口口 |----|
39
口口口口 |①---|
口口口口 |----|
①口口口 |----|
口口口口 |----|
40
口口口口 |①---|
①口口② |--②-|
口口口③ |--③-|
口口口口 |----|
41
口口口口 |①---|
口口口口 |----|
①口口口 |----|
口口口口 |----|
42
口口口④ |①---|
③口口口 |②---|
口口口② |③---|
①口口口 |④---|
43
口①①口 |①---|
口②②口 |②---|
口③③口 |③---|
口④④口 |④---|
44
①②③④ |①---|
口口口口 |②---|
口口口口 |③---|
口口口口 |④---|
45
口口口口 |①---|
④③②① |②---|
口口口口 |③---|
口口口口 |④---|
46
口口口口 |①---|
口口口口 |②---|
①②③④ |③---|
口口口口 |④---|
47
口口口口 |①---|
口口口口 |②---|
口口口口 |③---|
④③②① |④---|
48
口口口④ |①---|
口口口③ |②---|
口口口② |③---|
口口口① |④---|
49
口口①口 |①---|
口口②口 |②---|
口口③口 |③---|
口口④口 |④---|
50
④④口口 |①---|
③③口口 |②---|
②②口口 |③---|
①①口口 |④---|
51
口口①① |①---|
口口②② |②---|
口口③③ |③---|
口口④④ |④---|
52
口①①口 |①---|
②口口② |②---|
③口口③ |③---|
④口口④ |④---|
53
口①①口 |①---|
②口口② |②---|
③口口③ |③---|
④口口④ |④---|
54
口①①口 |①---|
②口口② |②---|
③口口③ |③---|
④口口④ |④---|
55
口④④口 |①---|
口③③口 |②---|
口②②口 |③---|
口①①口 |④---|
56
①口口① |①---|
②口口② |②---|
③口口③ |③---|
④口口④ |④---|
57
①口口① |①---|
②口口② |②---|
③口口③ |③---|
④口口④ |④---|
58
口口口① |①---|
口口②口 |②---|
口③口口 |③---|
④口口口 |④---|
59
①口口口 |①---|
口②口口 |②---|
口口③口 |③---|
口口口④ |④---|
60
③口口④ |①---|
②口口① |--②-|
口口口口 |--③-|
口口口口 |--④-|
61
口口口口 |----|
口口口口 |----|
口口口口 |----|
口口口口 |----|
62
口口口口 |①---|
口口口口 |--②-|
③口口口 |--③-|
②口口① |----|
63
口口口口 |①---|
口口口口 |----|
口口口① |----|
口口口口 |----|
64
口口口口 |①---|
①口口② |--②-|
口口口③ |--③-|
口口口口 |----|
65
口口口口 |①---|
口口口口 |----|
①口口口 |----|
口口口口 |----|
66
①口口口 |①---|
口②口口 |②---|
口口③口 |③---|
口口口④ |④---|
67
口口口① |①---|
口口②口 |②---|
口③口口 |③---|
④口口口 |④---|
68
口口口口 |----|
口口口口 |----|
口口口口 |----|
口口口口 |----|
69
口口口口 |----|
口口口口 |----|
口口口口 |----|
口口口口 |----|
70
口口口口 |①---|
口口口口 |②---|
③口口④ |③---|
①口口② |④---|
71
③口口④ |①---|
①口口② |②---|
口口口口 |③---|
口口口口 |④---|
72
口①②口 |①---|
口③④口 |②---|
口口口口 |③---|
口口口口 |④---|
73
口口口口 |①---|
口口口口 |②---|
口①②口 |③---|
口③④口 |④---|
74
④口口④ |①---|
③口口③ |②---|
②口口② |③---|
①口口① |④---|
75
口②①口 |①---|
口④③口 |②---|
口口口口 |③---|
口口口口 |④---|
76
口口口口 |①---|
口口口口 |②---|
口②①口 |③---|
口④③口 |④---|
77
口口口口 |①---|
口口口口 |②---|
④口口③ |③---|
②口口① |④---|
78
④口口③ |①---|
②口口① |②---|
口口口口 |③---|
口口口口 |④---|
79
口①①口 |①---|
口②②口 |②---|
口③③口 |③---|
口④④口 |④---|
80
口①①口 |----|
口②②口 |----|
口口口口 |①---|
口口口口 |②---|
81
口口口口 |----|
口口口口 |①---|
口①①口 |----|
①①①① |----|

不確定度: 0

最終更新:2014年09月19日 01:42